Časy uváděny v GMT + 1 hodina
Právě je 27 červen 2017, 21:57
Přidat nové témaZaslat odpověď
Jdi na stránku Předchozí  1, 2, 3 ... 14, 15, 16, 17  Další 
Autor Zpráva
Aramisek
Pokročilý
 

 
Založen: 7.4.2012 
Příspěvky: 283 
 
PříspěvekPředmět:
Description:
ZaslalZaslal: 03 srpen 2012, 19:54

Přidán další díl 23x17
Oni , roboti

Opět bude hlavním hrdinou Homer Simpson. Pan Burns se rozhodne, že lidští pracovníci za nic nestojí a je škoda je platit, tak je vymění za roboty určené k práci. Je jen jediný kdo zůstane v atomové elektrárně jako lidský pracovník a to Homer Simpson. Jak to dopadne? ..… Americký kultovní animovaný seriál (2012)



Jazyk: Český
Titulky: Nie
Odkaz na CSFD: http://www.csfd.cz/film/72489-simpsonovi/
Rok vydání: USA, 2012
Délka: 20 minút 15 sekúnd
Žánr: Komédia / Animovaný

Formát: AVI
Veľkosť súboru: 174 MiB
Trvanie: 20mn 15s
Celkový dátový tok: 1 201 Kbps

Video
Formát: MPEG-4 Visual
CodecID: XVID
Trvanie: 20mn 15s
Dátový tok: 996 Kbps
Šírka: 720pixely
Výška: 480pixely
Pomer strán: 16:9
Frekvencia snímok: 25,000snímok/sek.
ChromaSubsampling: 4:2:0
BitDepth/String: 8 bits
Bitov/(Bod*Snímka): 0.115
StreamSize/String: 144 MiB (83%)

Audio
Formát: MPEG Audio
CodecID: MP3
Trvanie: 20mn 14s
Dátový tok: 192 Kbps
Kanál(y): 2 kanály
Sampling rate: 44,1 KHz
StreamSize/String: 27,8 MiB (16%)

Download:



Len registrovaní užívatelia môžu pozerať odkazy!
Registrujte sa alebo sa prihláste na fórum.




Len registrovaní užívatelia môžu pozerať odkazy!
Registrujte sa alebo sa prihláste na fórum.

Zobrazit informace o autoroviOdeslat soukromou zprávu
CitovatNávrat nahoru
18mm18
Downloader
 

 
Založen: 11.11.2011 
Příspěvky: 147 
 
PříspěvekPředmět:
Description:
ZaslalZaslal: 04 srpen 2012, 15:24

Simpsonovi 23. série



Len registrovaní užívatelia môžu pozerať odkazy!
Registrujte sa alebo sa prihláste na fórum.



Len registrovaní užívatelia môžu pozerať odkazy!
Registrujte sa alebo sa prihláste na fórum.



Len registrovaní užívatelia môžu pozerať odkazy!
Registrujte sa alebo sa prihláste na fórum.

Zobrazit informace o autoroviOdeslat soukromou zprávu
CitovatNávrat nahoru
boris97
Downloader
 

 
Založen: 13.12.2007 
Příspěvky: 163 
 
PříspěvekPředmět:
Description:
ZaslalZaslal: 05 srpen 2012, 8:10

Simpsonovi / The Simpsons / CZ
Simpsonovi.23x17.Oni roboti.CZDabing




File Name : Simpsonovi.23x17.Oni roboti.CZDabing.avi
Veľkosť súboru : 174 Mb.

[Film]
Platnosť : Ano [AVI]
Trvanie : 00:20:15
Kompletný film : Ano

[Video]
Rozlíšenie : 720x480
Kodek : XviD MPEG-4 codec
FPS : 25,00
BitRate : 1009 Kbps
Quality Factor : 0,12 b/px

[Audio]
Kodek : MPEG 1 or 2 Audio Layer 3 (MP3)
Počet kanálov : 2
Sample Rate : 44100 Hz
BitRate : 192 Kbps
Jazyk : CZ




Len registrovaní užívatelia môžu pozerať odkazy!
Registrujte sa alebo sa prihláste na fórum.


bez hesla,nezabalené


Naposledy upravil boris97 dne 06 srpen 2012, 12:00, celkově upraveno 1 krát.

Zobrazit informace o autoroviOdeslat soukromou zprávu
CitovatNávrat nahoru
SoundBoy
Pokročilý
 

 
Založen: 22.5.2008 
Příspěvky: 332 
 
PříspěvekPředmět: Simpsonovi / Simpsons, The (TV seriál) (2011-2012) 23.série CZ
Description:
ZaslalZaslal: 06 srpen 2012, 11:05


    Simpsonovi / Simpsons, The (TV seriál) (2011-2012) 23.série

    Simpsonovi / Simpsons, The (TV seriál) (2011-2012) 23.série kompletní












    Simpsonovi / Simpsons, The (TV seriál) (2011-2012) 23.série

    Simpsonovi (dvacátá třetí série) je pokračování 22. série amerického animovaného seriálu Simpsonovi,
    vysílaném na americké televizní stanici Fox od 25. září 2011 do 20. května 2012.
    V Česku měla premiéru 12. dubna 2012 na kanálu Prima Cool.
    Série má celkem 22 epizod, včetně jubilejní 500. epizody Konečně zmizte!,
    která byla na Foxu odvysílána 19. února 2012.

    23. série: 2011-2012

    1. Dravec a fešák (The Falcon and D'ohman)
    2. Bartův nový hrdina (Bart Stops to Smell The Roosevelts)
    3. Speciální čarodějnický díl XXII. (Treehouse of Horror XXII)
    4. Mé nahraditelné já (Replaceable You)
    5. Dobrá manželka (The Food Wife)
    6. Velká knižní loupež (The Book Job)
    7. Muž v modrých flanelových kalhotách (The Man in the Blue Flannel Pants)
    8. Krustyho comeback (The Ten-Per-Cent Solution)
    9. Duch Vánoc příštích (Holidays of Future Passed)
    10. Otázky Homera Simpsona (Politically Inept, with Homer Simpson)
    11. Asociální síť (The D'oh-cial Network)
    12. Vočko na hadry (Moe Goes from Rags to Riches)
    13. Fiesta s Lisou (The Daughter Also Rises)
    14. Konečně zmizte! (At Long Last Leave)
    15. Zavíráme krám (Exit Through the Kwik-E-Mart)
    16. Jak jsem prospal vaši matku (How I Wet Your Mother)
    17. Oni, roboti (Them, Robot)
    18. Mé srdce patří Bartovi (Beware My Cheating Bart)
    19. Super věc, kterou Bart už nikdy neudělá (A Totally Fun Thing That Bart Will Never Do Again)
    20. Špion, který mě poučil (The Spy Who Learned Me)
    21. Tajnosti Neda a Edny (Ned 'N Edna's Blend)
    22. Líza a Lady Gaga (Lisa Goes Gaga)







Len registrovaní užívatelia môžu pozerať odkazy!
Registrujte sa alebo sa prihláste na fórum.




    NO PASSWORD




Naposledy upravil SoundBoy dne 07 září 2012, 9:38, celkově upraveno 3 krát.

_________________
    We are anonymous.
    We are Legion.
    United as ONE.
    Divided by zero.
    ]We do not forgive Censorship.
    We do not forget Oppression.
    US SENATE…
    Expect us!

Zobrazit informace o autoroviOdeslat soukromou zprávuICQ
CitovatNávrat nahoru
Aramisek
Pokročilý
 

 
Založen: 7.4.2012 
Příspěvky: 283 
 
PříspěvekPředmět:
Description:
ZaslalZaslal: 08 srpen 2012, 16:16

Simpsonovi 23. série / The Simpsons Season 23 / CZ



Simpsonovi.23x01.Dravec a fešák
Simpsonovi.23x02.Bártův nový hrdina
Simpsonovi.23x03.XXIISpeciální čarodějnický díl
Simpsonovi.23x04.Moje nahraditeľné já
Simpsonovi.23x05.Dobrá manželka
Simpsonovi.23x06.Velká knižní loupež
Simpsonovi.23x07.Muž v modrých flanelovych kalhotách
Simpsonovi.23x08.Krustyho Comeback
Simpsonovi.23x09.Duch Vánoc přištích
Simpsonovi.23x10.Otázky Homera Simpsona
Simpsonovi.23x11.Asociální sít
Simpsonovi.23x12.Vocko na hadry
Simpsonovi.23x13.Fiesta s Lizou
Simpsonovi.23x14.Konečně zmizte
Simpsonovi.23x15.Zavíráme krám
Simpsonovi.23x16.Jak jsem prospal vasi matku
Simpsonovi.23x17.Oni ,roboti

Download:



Len registrovaní užívatelia môžu pozerať odkazy!
Registrujte sa alebo sa prihláste na fórum.





Len registrovaní užívatelia môžu pozerať odkazy!
Registrujte sa alebo sa prihláste na fórum.

Zobrazit informace o autoroviOdeslat soukromou zprávu
CitovatNávrat nahoru
trkk
Přispěvatel
 

 
Založen: 19.6.2011 
Příspěvky: 661 
 
PříspěvekPředmět:
Description:
ZaslalZaslal: 09 srpen 2012, 22:31

23x18 Mé srdce patří Bartovi


Len registrovaní užívatelia môžu pozerať odkazy!
Registrujte sa alebo sa prihláste na fórum.



další díly ZDE

Zobrazit informace o autoroviOdeslat soukromou zprávu
CitovatNávrat nahoru
boris97
Downloader
 

 
Založen: 13.12.2007 
Příspěvky: 163 
 
PříspěvekPředmět:
Description:
ZaslalZaslal: 10 srpen 2012, 6:40

Simpsonovi / The Simpsons / CZ
Simpsonovi.23x18.Me srdce patri Bartovi.CZDabing




File Name : Simpsonovi.23x18.Me srdce patri Bartovi.CZDabing.avi
Veľkosť súboru : 175 Mb.

[Film]
Platnosť : Ano [AVI]
Trvanie : 00:20:37
Kompletný film : Ano

[Video]
Rozlíšenie : 720x480
Kodek : XviD MPEG-4 codec
FPS : 25,00
BitRate : 996 Kbps
Quality Factor : 0,12 b/px

[Audio]
Kodek : MPEG 1 or 2 Audio Layer 3 (MP3)
Počet kanálov : 2
Sample Rate : 44100 Hz
BitRate : 192 Kbps
Jazyk : CZ




Len registrovaní užívatelia môžu pozerať odkazy!
Registrujte sa alebo sa prihláste na fórum.


bez hesla,nezabalené

Zobrazit informace o autoroviOdeslat soukromou zprávu
CitovatNávrat nahoru
Aramisek
Pokročilý
 

 
Založen: 7.4.2012 
Příspěvky: 283 
 
PříspěvekPředmět:
Description:
ZaslalZaslal: 13 srpen 2012, 13:18

Přidán další díl 23x18
Mé srdce patří bartovi

Bart se zamiluje do přítelkyně největšího surovce ve škole a Homer propadne kouzlu prastarého seriálu... Americký kultovní animovaný seriál (2012)



Jazyk: Český
Titulky: Ne
Odkaz na CSFD: http://www.csfd.cz/film/72489-simpsonovi/
Rok vydání: USA, 2012
Délka: 20 min
Žánr: Animovaný / Komedie

Media info
Video
ID: 0
Formát: MPEG-4 Visual
Format_Profile: Advanced Simple@L5
Format_Settings_BVOP/String: 2
Format_Settings_QPel/String: Ne
Format_Settings_GMC/String: 0 warppoint
Format_Settings_Matrix/String: Default (H.263)
CodecID: XVID
/: XviD
Duration/String: 20mn 37s
Bit rate: 983 Kbps
Šířka: 720pixely
Výška: 480pixely
Poměr stran: 16:9
Frame rate: 25,000 fps
Standard: NTSC
ColorSpace: YUV
ChromaSubsampling: 4:2:0
BitDepth/String: 8 bits
ScanType/String: Progressive
Bits/(Pixel*Frame): 0.114
StreamSize/String: 145 MiB (83%)
Enkódoval: XviD 1.2.1 (UTC 2008-12-04)

Audio
ID: 1
Formát: MPEG Audio
Format_Version: Version 1
Format_Profile: Layer 3
Format_Settings_Mode: Joint stereo
Format_Settings_ModeExtension: MS Stereo
CodecID: 55
/: MP3
Duration/String: 20mn 37s
Bit rate: 192 Kbps
Kanál(y): 2 kanály
Sampling rate: 44,1 KHz
Video delay: 40ms
StreamSize/String: 28,3 MiB (16%)
Interleave_Duration/String: 26 ms (0.65 video frames)
Interleave_Preload/String: 522 ms
Enkódoval: LAME3.98

Download:



Len registrovaní užívatelia môžu pozerať odkazy!
Registrujte sa alebo sa prihláste na fórum.




Len registrovaní užívatelia môžu pozerať odkazy!
Registrujte sa alebo sa prihláste na fórum.

Zobrazit informace o autoroviOdeslat soukromou zprávu
CitovatNávrat nahoru
18mm18
Downloader
 

 
Založen: 11.11.2011 
Příspěvky: 147 
 
PříspěvekPředmět:
Description:
ZaslalZaslal: 13 srpen 2012, 14:50

23x18 Mé srdce patří Bartovi


Len registrovaní užívatelia môžu pozerať odkazy!
Registrujte sa alebo sa prihláste na fórum.

Zobrazit informace o autoroviOdeslat soukromou zprávu
CitovatNávrat nahoru
ppsstt.123
Přispěvatel
 

 
Založen: 3.5.2012 
Příspěvky: 817 
 
PříspěvekPředmět:
Description:
ZaslalZaslal: 13 srpen 2012, 22:35

Přidán díl 23x18


Len registrovaní užívatelia môžu pozerať odkazy!
Registrujte sa alebo sa prihláste na fórum.

Zobrazit informace o autoroviOdeslat soukromou zprávu
CitovatNávrat nahoru
boris97
Downloader
 

 
Založen: 13.12.2007 
Příspěvky: 163 
 
PříspěvekPředmět:
Description:
ZaslalZaslal: 17 srpen 2012, 5:39

Simpsonovi / The Simpsons / CZ
Simpsonovi.23x19.Super věc, kterou Bart už nikdy neudělá.CZDabing






Len registrovaní užívatelia môžu pozerať odkazy!
Registrujte sa alebo sa prihláste na fórum.


bez hesla,nezabalené

Zobrazit informace o autoroviOdeslat soukromou zprávu
CitovatNávrat nahoru
trkk
Přispěvatel
 

 
Založen: 19.6.2011 
Příspěvky: 661 
 
PříspěvekPředmět:
Description:
ZaslalZaslal: 17 srpen 2012, 8:14

23x19 Super věc kterou Bart už nikdy neudělá


Len registrovaní užívatelia môžu pozerať odkazy!
Registrujte sa alebo sa prihláste na fórum.


další díly ZDE

Zobrazit informace o autoroviOdeslat soukromou zprávu
CitovatNávrat nahoru
18mm18
Downloader
 

 
Založen: 11.11.2011 
Příspěvky: 147 
 
PříspěvekPředmět:
Description:
ZaslalZaslal: 17 srpen 2012, 14:55

23x19 Super věc, kterou Bart už nikdy neudělá


Len registrovaní užívatelia môžu pozerať odkazy!
Registrujte sa alebo sa prihláste na fórum.

Zobrazit informace o autoroviOdeslat soukromou zprávu
CitovatNávrat nahoru
Aramisek
Pokročilý
 

 
Založen: 7.4.2012 
Příspěvky: 283 
 
PříspěvekPředmět:
Description:
ZaslalZaslal: 17 srpen 2012, 20:32

Přidán další díl 23x19
Super věc, kterou Bart už nikdy neudělá

Bart přesvědčí rodinu, aby se vypravili na plavbu výletním parníkem. Zalíbí se mu natolik, že si přeje, aby nikdy neskončila... Americký kultovní animovaný seriál (2012)



Jazyk: Český
Titulky: Ne
Odkaz na CSFD: http://www.csfd.cz/film/72489-simpsonovi/
Rok vydání: USA, 2012
Délka: 20 min
Žánr: Animovaný / Komedie

Mediainfo:
Format: AVI
Format/Info: Audio Video Interleave
File size: 179 MiB
Duration: 20mn 57s
Overall bit rate: 1 192 Kbps
IENC: Machete 3.8

Video
ID: 0
Format: MPEG-4 Visual
Format profile: Advanced Simple@L5
Format settings, BVOP: No
Format settings, QPel: No
Format settings, GMC: No warppoints
Format settings, Matrix: Default (H.263)
Codec ID: XVID
Codec ID/Hint: XviD
Duration: 20mn 57s
Bit rate: 1 048 Kbps
Width: 688 pixels
Height: 384 pixels
Display aspect ratio: 16:9
Frame rate: 25.000 fps
Color space: YUV
Chroma subsampling: 4:2:0
Bit depth: 8 bits
Scan type: Progressive
Compression mode: Lossy
Bits/(Pixel*Frame): 0.159
Stream size: 157 MiB (88%)
Writing library: XviD 64

Audio
ID: 1
Format: MPEG Audio
Format version: Version 1
Format profile: Layer 3
Codec ID: 55
Codec ID/Hint: MP3
Duration: 20mn 57s
Bit rate mode: Constant
Bit rate: 128 Kbps
Channel(s): 2 channels
Sampling rate: 44.1 KHz
Compression mode: Lossy
Stream size: 19.2 MiB (11%)
Alignment: Aligned on interleaves
Interleave, duration: 26 ms (0.65 video frame)
Interleave, preload duration: 26 ms


Download:



Len registrovaní užívatelia môžu pozerať odkazy!
Registrujte sa alebo sa prihláste na fórum.




Len registrovaní užívatelia môžu pozerať odkazy!
Registrujte sa alebo sa prihláste na fórum.

Zobrazit informace o autoroviOdeslat soukromou zprávu
CitovatNávrat nahoru
ppsstt.123
Přispěvatel
 

 
Založen: 3.5.2012 
Příspěvky: 817 
 
PříspěvekPředmět:
Description:
ZaslalZaslal: 19 srpen 2012, 10:37

Přidán díl 23x19


Len registrovaní užívatelia môžu pozerať odkazy!
Registrujte sa alebo sa prihláste na fórum.

Zobrazit informace o autoroviOdeslat soukromou zprávu
CitovatNávrat nahoru
trkk
Přispěvatel
 

 
Založen: 19.6.2011 
Příspěvky: 661 
 
PříspěvekPředmět:
Description:
ZaslalZaslal: 24 srpen 2012, 8:10

23x20 Špión, který mě poučil


Len registrovaní užívatelia môžu pozerať odkazy!
Registrujte sa alebo sa prihláste na fórum.


další díly ZDE

Zobrazit informace o autoroviOdeslat soukromou zprávu
CitovatNávrat nahoru
18mm18
Downloader
 

 
Založen: 11.11.2011 
Příspěvky: 147 
 
PříspěvekPředmět:
Description:
ZaslalZaslal: 24 srpen 2012, 13:51

23x20 Špión, který mě poučil


Len registrovaní užívatelia môžu pozerať odkazy!
Registrujte sa alebo sa prihláste na fórum.

Zobrazit informace o autoroviOdeslat soukromou zprávu
CitovatNávrat nahoru
ppsstt.123
Přispěvatel
 

 
Založen: 3.5.2012 
Příspěvky: 817 
 
PříspěvekPředmět:
Description:
ZaslalZaslal: 26 srpen 2012, 13:59

Přidán díl 23x20


Len registrovaní užívatelia môžu pozerať odkazy!
Registrujte sa alebo sa prihláste na fórum.

Zobrazit informace o autoroviOdeslat soukromou zprávu
CitovatNávrat nahoru
Aramisek
Pokročilý
 

 
Založen: 7.4.2012 
Příspěvky: 283 
 
PříspěvekPředmět:
Description:
ZaslalZaslal: 27 srpen 2012, 11:48

Přidán další díl 23x20
Špion , který mě poucil

Manželství Homera a Marge se zmítá v další krizi. Homer samou nervozitou utrpí pracovní úraz. Následné volno využije opravdu nečekaně... Americký kultovní animovaný seriál (2012)



Jazyk: CZ
Titulky: nejsou
Odkaz na CSFD: http://www.csfd.cz/film/72489-simpsonovi/
Rok vydání: 2012
Délka: 20min38s
Žánr: Animovaný / Komedie

Media Info
Formát: AVI
Formát/: Audio Video Interleave
Velikost souboru: 167 MiB
Duration/String: 20mn 38s
Celkový BitRate: 1 134 Kbps
Použitý software: MEncoder r33883
Enkódoval: MPlayer

Video
ID: 0
Formát: MPEG-4 Visual
Format_Profile: Simple@L3
Format_Settings_BVOP/String: Ne
Format_Settings_QPel/String: Ne
Format_Settings_GMC/String: 0 warppoint
Format_Settings_Matrix/String: Default (H.263)
CodecID: XVID
/: XviD
Duration/String: 20mn 38s
Bit rate: 998 Kbps
Šířka: 720pixely
Výška: 576pixely
Poměr stran: 5:4
Frame rate: 25,000 fps
Standard: PAL
ColorSpace: YUV
ChromaSubsampling: 4:2:0
BitDepth/String: 8 bits
ScanType/String: Progressive
Bits/(Pixel*Frame): 0.096
StreamSize/String: 147 MiB (88%)
Enkódoval: XviD 63

Audio
ID: 1
Formát: MPEG Audio
Format_Version: Version 1
Format_Profile: Layer 3
Format_Settings_Mode: Joint stereo
Format_Settings_ModeExtension: MS Stereo
CodecID: 55
/: MP3
Duration/String: 20mn 38s
Bit rate: 123 Kbps
Kanál(y): 2 kanály
Sampling rate: 48,0 KHz
StreamSize/String: 18,2 MiB (11%)
Interleave_Duration/String: 24 ms (0.60 video frames)
Interleave_Preload/String: 529 ms


Download:



Len registrovaní užívatelia môžu pozerať odkazy!
Registrujte sa alebo sa prihláste na fórum.




Len registrovaní užívatelia môžu pozerať odkazy!
Registrujte sa alebo sa prihláste na fórum.

Zobrazit informace o autoroviOdeslat soukromou zprávu
CitovatNávrat nahoru
trkk
Přispěvatel
 

 
Založen: 19.6.2011 
Příspěvky: 661 
 
PříspěvekPředmět:
Description:
ZaslalZaslal: 30 srpen 2012, 22:07

23x21 Tajnosti Neda a Edny


Len registrovaní užívatelia môžu pozerať odkazy!
Registrujte sa alebo sa prihláste na fórum.



další díly ZDE


Naposledy upravil trkk dne 31 srpen 2012, 11:37, celkově upraveno 2 krát.

Zobrazit informace o autoroviOdeslat soukromou zprávu
CitovatNávrat nahoru
boris97
Downloader
 

 
Založen: 13.12.2007 
Příspěvky: 163 
 
PříspěvekPředmět:
Description:
ZaslalZaslal: 30 srpen 2012, 22:22

Simpsonovi / The Simpsons / CZ
Simpsonovi.23x22.Liza a Lady Gaga.CZDabing






Len registrovaní užívatelia môžu pozerať odkazy!
Registrujte sa alebo sa prihláste na fórum.


bez hesla,nezabalené

Zobrazit informace o autoroviOdeslat soukromou zprávu
CitovatNávrat nahoru
Aramisek
Pokročilý
 

 
Založen: 7.4.2012 
Příspěvky: 283 
 
PříspěvekPředmět:
Description:
ZaslalZaslal: 30 srpen 2012, 23:11

Přidán další díl 23x21
Tajnosti Neda a Edny

Při springfieldských pašijových hrách, v nichž Homer ztvárňuje hlavní roli Ježíše, dojde k nehodě, při níž je odhaleno tajemství Neda a Edny... Americký kultovní animovaný seriál (2012)



Jazyk: CZ
Titulky: nejsou
Odkaz na CSFD: http://www.csfd.cz/film/72489-simpsonovi/
Rok vydání: 2012
Délka: 20min12s
Žánr: Animovaný / Komedie


General
Format : AVI
Format/Info : Audio Video Interleave
File size : 173 MiB
Duration : 20mn 10s
Overall bit rate : 1 197 Kbps
Writing application : MEncoder SVN-r30881(20100311-gcc4.3.3)
Writing library : MPlayer

Video
ID : 0
Format : MPEG-4 Visual
Format profile : Advanced Simple@L5
Format settings, BVOP : 2
Format settings, QPel : No
Format settings, GMC : No warppoints
Format settings, Matrix : Default (H.263)
Codec ID : XVID
Codec ID/Hint : XviD
Duration : 20mn 10s
Bit rate : 992 Kbps
Width : 720 pixels
Height : 480 pixels
Display aspect ratio : 16:9
Frame rate : 25.000 fps
Standard : NTSC
Color space : YUV
Chroma subsampling : 4:2:0
Bit depth : 8 bits
Scan type : Progressive
Compression mode : Lossy
Bits/(Pixel*Frame) : 0.115
Stream size : 143 MiB (83%)
Writing library : XviD 1.2.1 (UTC 2008-12-04)

Audio
ID : 1
Format : MPEG Audio
Format version : Version 1
Format profile : Layer 3
Mode : Joint stereo
Mode extension : MS Stereo
Codec ID : 55
Codec ID/Hint : MP3
Duration : 20mn 10s
Bit rate mode : Constant
Bit rate : 192 Kbps
Channel(s) : 2 channels
Sampling rate : 44.1 KHz
Compression mode : Lossy
Delay relative to video : 40ms
Stream size : 27.7 MiB (16%)
Alignment : Aligned on interleaves
Interleave, duration : 26 ms (0.65 video frame)
Interleave, preload duration : 522 ms



Download:



Len registrovaní užívatelia môžu pozerať odkazy!
Registrujte sa alebo sa prihláste na fórum.




Len registrovaní užívatelia môžu pozerať odkazy!
Registrujte sa alebo sa prihláste na fórum.

Zobrazit informace o autoroviOdeslat soukromou zprávu
CitovatNávrat nahoru
Aramisek
Pokročilý
 

 
Založen: 7.4.2012 
Příspěvky: 283 
 
PříspěvekPředmět:
Description:
ZaslalZaslal: 30 srpen 2012, 23:58

Přidán další díl 23x22
Líza a Lady Gaga

Do Springfieldu zavítá Lady Gaga. Pomůže Líze získat ztracené sebevědomí? Závěr amerického kultovního animovaného seriálu (2012)



Jazyk: CZ
Titulky: nejsou
Odkaz na CSFD: http://www.csfd.cz/film/72489-simpsonovi/
Rok vydání: 2012
Délka: 20min47s
Žánr: Animovaný / Komedie


General
Format : AVI
Format/Info : Audio Video Interleave
File size : 179 MiB
Duration : 20mn 47s
Overall bit rate : 1 203 Kbps
Writing application : MEncoder SVN-r30881(20100311-gcc4.3.3)
Writing library : MPlayer

Video
ID : 0
Format : MPEG-4 Visual
Format profile : Advanced Simple@L5
Format settings, BVOP : 2
Format settings, QPel : No
Format settings, GMC : No warppoints
Format settings, Matrix : Default (H.263)
Codec ID : XVID
Codec ID/Hint : XviD
Duration : 20mn 47s
Bit rate : 998 Kbps
Width : 720 pixels
Height : 480 pixels
Display aspect ratio : 16:9
Frame rate : 25.000 fps
Standard : NTSC
Color space : YUV
Chroma subsampling : 4:2:0
Bit depth : 8 bits
Scan type : Progressive
Compression mode : Lossy
Bits/(Pixel*Frame) : 0.116
Stream size : 148 MiB (83%)
Writing library : XviD 1.2.1 (UTC 2008-12-04)

Audio
ID : 1
Format : MPEG Audio
Format version : Version 1
Format profile : Layer 3
Mode : Joint stereo
Mode extension : MS Stereo
Codec ID : 55
Codec ID/Hint : MP3
Duration : 20mn 46s
Bit rate mode : Constant
Bit rate : 192 Kbps
Channel(s) : 2 channels
Sampling rate : 44.1 KHz
Compression mode : Lossy
Delay relative to video : 40ms
Stream size : 28.5 MiB (16%)
Alignment : Aligned on interleaves
Interleave, duration : 26 ms (0.65 video frame)
Interleave, preload duration : 522 ms


Download:



Len registrovaní užívatelia môžu pozerať odkazy!
Registrujte sa alebo sa prihláste na fórum.




Len registrovaní užívatelia môžu pozerať odkazy!
Registrujte sa alebo sa prihláste na fórum.

Zobrazit informace o autoroviOdeslat soukromou zprávu
CitovatNávrat nahoru
trkk
Přispěvatel
 

 
Založen: 19.6.2011 
Příspěvky: 661 
 
PříspěvekPředmět:
Description:
ZaslalZaslal: 31 srpen 2012, 10:21

23x22 Líza a Lady Gaga


Len registrovaní užívatelia môžu pozerať odkazy!
Registrujte sa alebo sa prihláste na fórum.



další díly ZDE


Naposledy upravil trkk dne 31 srpen 2012, 11:37, celkově upraveno 1 krát.

Zobrazit informace o autoroviOdeslat soukromou zprávu
CitovatNávrat nahoru
boris97
Downloader
 

 
Založen: 13.12.2007 
Příspěvky: 163 
 
PříspěvekPředmět:
Description:
ZaslalZaslal: 31 srpen 2012, 10:35

Simpsonovi / The Simpsons / CZ
Simpsonovi.Kompletní 23.série.CZDabing




1. Dravec a fešák / The Falcon and the D'Ohman
2. Bartův nový hrdina / Bart Stops to Smell The Roosevelts
3. Speciální čarodějnický díl XXII. / Treehouse of Horror XXII
4. Mé nahraditelné já / Replaceable You
5. Dobrá manželka / The Food Wife
6. Velká knižní loupež / The Book Job
7. Muž v modrých flanelových kalhotách / The Man in the Blue Flannel Pants
8. Krustyho comeback / The Ten-Per-Cent Solution
9. Duch Vánoc příštích / Holidays of Future Passed
10. Otázky Homera Simpsona / Politically Inept, with Homer Simpson
11. Asociální síť / The D'oh-cial Network
12. Vočko na hadry / Moe Goes from Rags to Riches
13. Fiesta s Lízou / The Daughter Also Rises
14. Konečně zmizte! / At Long Last Leave
15. Zavíráme krám / Exit Through the Kwik-E-Mart
16. Jak jsem prospal vaši matku / How I Wet Your Mother
17. Oni, roboti / Them, Robot
18. Mé srdce patří Bartovi / Beware My Cheating Bart
19. Super věc, kterou Bart už nikdy neudělá / A Totally Fun Thing That Bart Will Never Do Again
20. Špión, který mě poučil / The Spy Who Learned Me
21. Tajnosti Neda a Edny / Ned 'N Edna's Blend
22. Líza a Lady Gaga / Lisa Goes Gaga



1x1.89 GB,1x1.85 GB

Len registrovaní užívatelia môžu pozerať odkazy!
Registrujte sa alebo sa prihláste na fórum.


bez hesla

Zobrazit informace o autoroviOdeslat soukromou zprávu
CitovatNávrat nahoru
Zobrazit příspěvky z předchozích:
Přidat nové témaZaslat odpověď
Jdi na stránku Předchozí  1, 2, 3 ... 14, 15, 16, 17  Další 
Přejdi na:
Nemůžete odesílat nové téma do tohoto fóra.
Nemůžete odpovídat na témata v tomto fóru.
Nemůžete upravovat své příspěvky v tomto fóru.
Nemůžete mazat své příspěvky v tomto fóru.
Nemůžete hlasovat v tomto fóru.

Powered by phpBB © 2007 phpBB Group
Edited by lazyboy & admin
Copyleft W-Source 2007-2011

:: [ Vygenerované za: 0.1 s ] :: [ 17 Queries ] ::