Časy uváděny v GMT + 2 hodiny
Právě je 19 únor 2018, 0:17
Přidat nové témaZaslat odpověď
Jdi na stránku Předchozí  1, 2, 3, 4  Další 
Autor Zpráva
daniel+
Medium Downloader
 

 
Založen: 25.1.2009 
Příspěvky: 70 
 
PříspěvekPředmět:
Description:
ZaslalZaslal: 07 duben 2010, 18:08

Smile

Zobrazit informace o autoroviOdeslat soukromou zprávu
CitovatNávrat nahoru
daniel+
Medium Downloader
 

 
Založen: 25.1.2009 
Příspěvky: 70 
 
PříspěvekPředmět:
Description:
ZaslalZaslal: 17 červen 2010, 17:28

Kobra 11/ 14 serie complet:




kód:
Len registrovaní užívatelia môžu pozerať odkazy!
Registrujte sa alebo sa prihláste na fórum.


nové díly 2010:

kód:
Len registrovaní užívatelia môžu pozerať odkazy!
Registrujte sa alebo sa prihláste na fórum.

Zobrazit informace o autoroviOdeslat soukromou zprávu
CitovatNávrat nahoru
mysickyivisek
Downloader
 

 
Založen: 31.1.2008 
Příspěvky: 126 
 
PříspěvekPředmět: Kobra 11 (Alarm für Cobra 11 - Die Autobahnpolizei) 1-13 CZ
Description: Kobra 11 (Alarm für Cobra 11 - Die Autobahnpolizei) 1 až 13 sezóna CZ
ZaslalZaslal: 24 leden 2011, 20:25

Kobra 11 (Alarm für Cobra 11 - Die Autobahnpolizei) 1 až 13 sezóna CZ

info:
kód:
Len registrovaní užívatelia môžu pozerať odkazy!
Registrujte sa alebo sa prihláste na fórum.




V případě nefunkčnosti linků mi pište zprávy.


Llinklisty:


kód:
Len registrovaní užívatelia môžu pozerať odkazy!
Registrujte sa alebo sa prihláste na fórum.



kód:
Len registrovaní užívatelia môžu pozerať odkazy!
Registrujte sa alebo sa prihláste na fórum.



kód:
Len registrovaní užívatelia môžu pozerať odkazy!
Registrujte sa alebo sa prihláste na fórum.



kód:
Len registrovaní užívatelia môžu pozerať odkazy!
Registrujte sa alebo sa prihláste na fórum.



kód:
Len registrovaní užívatelia môžu pozerať odkazy!
Registrujte sa alebo sa prihláste na fórum.



Sezońa I.:



kód:
Len registrovaní užívatelia môžu pozerať odkazy!
Registrujte sa alebo sa prihláste na fórum.





kód:
Len registrovaní užívatelia môžu pozerať odkazy!
Registrujte sa alebo sa prihláste na fórum.





kód:
Len registrovaní užívatelia môžu pozerať odkazy!
Registrujte sa alebo sa prihláste na fórum.





kód:
Len registrovaní užívatelia môžu pozerať odkazy!
Registrujte sa alebo sa prihláste na fórum.





kód:
Len registrovaní užívatelia môžu pozerať odkazy!
Registrujte sa alebo sa prihláste na fórum.



Sezońa II.:



kód:
Len registrovaní užívatelia môžu pozerať odkazy!
Registrujte sa alebo sa prihláste na fórum.





kód:
Len registrovaní užívatelia môžu pozerať odkazy!
Registrujte sa alebo sa prihláste na fórum.





kód:
Len registrovaní užívatelia môžu pozerať odkazy!
Registrujte sa alebo sa prihláste na fórum.





kód:
Len registrovaní užívatelia môžu pozerať odkazy!
Registrujte sa alebo sa prihláste na fórum.





kód:
Len registrovaní užívatelia môžu pozerať odkazy!
Registrujte sa alebo sa prihláste na fórum.



Sezońa III.:



kód:
Len registrovaní užívatelia môžu pozerať odkazy!
Registrujte sa alebo sa prihláste na fórum.





kód:
Len registrovaní užívatelia môžu pozerať odkazy!
Registrujte sa alebo sa prihláste na fórum.





kód:
Len registrovaní užívatelia môžu pozerať odkazy!
Registrujte sa alebo sa prihláste na fórum.





kód:
Len registrovaní užívatelia môžu pozerať odkazy!
Registrujte sa alebo sa prihláste na fórum.





kód:
Len registrovaní užívatelia môžu pozerať odkazy!
Registrujte sa alebo sa prihláste na fórum.



Sezońa IV.:



kód:
Len registrovaní užívatelia môžu pozerať odkazy!
Registrujte sa alebo sa prihláste na fórum.





kód:
Len registrovaní užívatelia môžu pozerať odkazy!
Registrujte sa alebo sa prihláste na fórum.





kód:
Len registrovaní užívatelia môžu pozerať odkazy!
Registrujte sa alebo sa prihláste na fórum.





kód:
Len registrovaní užívatelia môžu pozerať odkazy!
Registrujte sa alebo sa prihláste na fórum.





kód:
Len registrovaní užívatelia môžu pozerať odkazy!
Registrujte sa alebo sa prihláste na fórum.



Sezońa V.:



kód:
Len registrovaní užívatelia môžu pozerať odkazy!
Registrujte sa alebo sa prihláste na fórum.





kód:
Len registrovaní užívatelia môžu pozerať odkazy!
Registrujte sa alebo sa prihláste na fórum.





kód:
Len registrovaní užívatelia môžu pozerať odkazy!
Registrujte sa alebo sa prihláste na fórum.





kód:
Len registrovaní užívatelia môžu pozerať odkazy!
Registrujte sa alebo sa prihláste na fórum.





kód:
Len registrovaní užívatelia môžu pozerať odkazy!
Registrujte sa alebo sa prihláste na fórum.



Sezońa VI.:



kód:
Len registrovaní užívatelia môžu pozerať odkazy!
Registrujte sa alebo sa prihláste na fórum.





kód:
Len registrovaní užívatelia môžu pozerať odkazy!
Registrujte sa alebo sa prihláste na fórum.





kód:
Len registrovaní užívatelia môžu pozerať odkazy!
Registrujte sa alebo sa prihláste na fórum.





kód:
Len registrovaní užívatelia môžu pozerať odkazy!
Registrujte sa alebo sa prihláste na fórum.





kód:
Len registrovaní užívatelia môžu pozerať odkazy!
Registrujte sa alebo sa prihláste na fórum.



Sezońa VII.:



kód:
Len registrovaní užívatelia môžu pozerať odkazy!
Registrujte sa alebo sa prihláste na fórum.





kód:
Len registrovaní užívatelia môžu pozerať odkazy!
Registrujte sa alebo sa prihláste na fórum.





kód:
Len registrovaní užívatelia môžu pozerať odkazy!
Registrujte sa alebo sa prihláste na fórum.





kód:
Len registrovaní užívatelia môžu pozerať odkazy!
Registrujte sa alebo sa prihláste na fórum.





kód:
Len registrovaní užívatelia môžu pozerať odkazy!
Registrujte sa alebo sa prihláste na fórum.



Sezońa VIII.:



kód:
Len registrovaní užívatelia môžu pozerať odkazy!
Registrujte sa alebo sa prihláste na fórum.





kód:
Len registrovaní užívatelia môžu pozerať odkazy!
Registrujte sa alebo sa prihláste na fórum.

_________________

Zobrazit informace o autoroviOdeslat soukromou zprávu
CitovatNávrat nahoru
mysickyivisek
Downloader
 

 
Založen: 31.1.2008 
Příspěvky: 126 
 
PříspěvekPředmět:
Description:
ZaslalZaslal: 24 leden 2011, 20:25



kód:
Len registrovaní užívatelia môžu pozerať odkazy!
Registrujte sa alebo sa prihláste na fórum.





kód:
Len registrovaní užívatelia môžu pozerať odkazy!
Registrujte sa alebo sa prihláste na fórum.





kód:
Len registrovaní užívatelia môžu pozerať odkazy!
Registrujte sa alebo sa prihláste na fórum.



Sezońa IX.:



kód:
Len registrovaní užívatelia môžu pozerať odkazy!
Registrujte sa alebo sa prihláste na fórum.





kód:
Len registrovaní užívatelia môžu pozerať odkazy!
Registrujte sa alebo sa prihláste na fórum.





kód:
Len registrovaní užívatelia môžu pozerať odkazy!
Registrujte sa alebo sa prihláste na fórum.





kód:
Len registrovaní užívatelia môžu pozerať odkazy!
Registrujte sa alebo sa prihláste na fórum.





kód:
Len registrovaní užívatelia môžu pozerať odkazy!
Registrujte sa alebo sa prihláste na fórum.



Sezońa X.:



kód:
Len registrovaní užívatelia môžu pozerať odkazy!
Registrujte sa alebo sa prihláste na fórum.





kód:
Len registrovaní užívatelia môžu pozerať odkazy!
Registrujte sa alebo sa prihláste na fórum.





kód:
Len registrovaní užívatelia môžu pozerať odkazy!
Registrujte sa alebo sa prihláste na fórum.





kód:
Len registrovaní užívatelia môžu pozerať odkazy!
Registrujte sa alebo sa prihláste na fórum.





kód:
Len registrovaní užívatelia môžu pozerať odkazy!
Registrujte sa alebo sa prihláste na fórum.



Sezońa XI.:



kód:
Len registrovaní užívatelia môžu pozerať odkazy!
Registrujte sa alebo sa prihláste na fórum.





kód:
Len registrovaní užívatelia môžu pozerať odkazy!
Registrujte sa alebo sa prihláste na fórum.





kód:
Len registrovaní užívatelia môžu pozerať odkazy!
Registrujte sa alebo sa prihláste na fórum.





kód:
Len registrovaní užívatelia môžu pozerať odkazy!
Registrujte sa alebo sa prihláste na fórum.





kód:
Len registrovaní užívatelia môžu pozerať odkazy!
Registrujte sa alebo sa prihláste na fórum.



Sezońa XII.:



kód:
Len registrovaní užívatelia môžu pozerať odkazy!
Registrujte sa alebo sa prihláste na fórum.





kód:
Len registrovaní užívatelia môžu pozerať odkazy!
Registrujte sa alebo sa prihláste na fórum.





kód:
Len registrovaní užívatelia môžu pozerať odkazy!
Registrujte sa alebo sa prihláste na fórum.





kód:
Len registrovaní užívatelia môžu pozerať odkazy!
Registrujte sa alebo sa prihláste na fórum.





kód:
Len registrovaní užívatelia môžu pozerať odkazy!
Registrujte sa alebo sa prihláste na fórum.



Sezońa XIII.:



kód:
Len registrovaní užívatelia môžu pozerať odkazy!
Registrujte sa alebo sa prihláste na fórum.





kód:
Len registrovaní užívatelia môžu pozerať odkazy!
Registrujte sa alebo sa prihláste na fórum.





kód:
Len registrovaní užívatelia môžu pozerať odkazy!
Registrujte sa alebo sa prihláste na fórum.





kód:
Len registrovaní užívatelia môžu pozerať odkazy!
Registrujte sa alebo sa prihláste na fórum.





kód:
Len registrovaní užívatelia môžu pozerať odkazy!
Registrujte sa alebo sa prihláste na fórum.




V případě nefunkčnosti linků mi pište zprávy.

_________________

Zobrazit informace o autoroviOdeslat soukromou zprávu
CitovatNávrat nahoru
pawek
Downloader
 

 
Založen: 27.1.2010 
Příspěvky: 117 
 
PříspěvekPředmět:
Description:
ZaslalZaslal: 14 červenec 2011, 16:57

Kobra 11 cz



kód:
Len registrovaní užívatelia môžu pozerať odkazy!
Registrujte sa alebo sa prihláste na fórum.


Velikost souboru : 411 Mb.

[Film]
Platnost : Ano [AVI]
Délka : 00:42:51
Kompletní film : Ano

[Video]
Rozlišení : 720x576
Kodek : DivX 3 (Low motion)
FPS : 25,00
BitRate : 1211 Kbps
Faktor kvality : 0,12 b/px

[Audio]
Kodek : MPEG 1 or 2 Audio Layer 3 (MP3)
Počet kanálů : 2
Samplovací frekvence : 44100 Hz
BitRate : 128 Kbps

Tv rip



15x01-Koma

kód:
Len registrovaní užívatelia môžu pozerať odkazy!
Registrujte sa alebo sa prihláste na fórum.


kód:
Len registrovaní užívatelia môžu pozerať odkazy!
Registrujte sa alebo sa prihláste na fórum.


15x02-Kybernetická bouře

kód:
Len registrovaní užívatelia môžu pozerať odkazy!
Registrujte sa alebo sa prihláste na fórum.


kód:
Len registrovaní užívatelia môžu pozerať odkazy!
Registrujte sa alebo sa prihláste na fórum.


15x03-Odměna za zabití Kim Kruger

kód:
Len registrovaní užívatelia môžu pozerať odkazy!
Registrujte sa alebo sa prihláste na fórum.


kód:
Len registrovaní užívatelia môžu pozerať odkazy!
Registrujte sa alebo sa prihláste na fórum.


kód:
Len registrovaní užívatelia môžu pozerať odkazy!
Registrujte sa alebo sa prihláste na fórum.



15x04 Zatmění

kód:
Len registrovaní užívatelia môžu pozerať odkazy!
Registrujte sa alebo sa prihláste na fórum.


kód:
Len registrovaní užívatelia môžu pozerať odkazy!
Registrujte sa alebo sa prihláste na fórum.


15x05 Beze stopy

kód:
Len registrovaní užívatelia môžu pozerať odkazy!
Registrujte sa alebo sa prihláste na fórum.


kód:
Len registrovaní užívatelia môžu pozerať odkazy!
Registrujte sa alebo sa prihláste na fórum.


kód:
Len registrovaní užívatelia môžu pozerať odkazy!
Registrujte sa alebo sa prihláste na fórum.



15x06 Operace Tygr

kód:
Len registrovaní užívatelia môžu pozerať odkazy!
Registrujte sa alebo sa prihláste na fórum.


kód:
Len registrovaní užívatelia môžu pozerať odkazy!
Registrujte sa alebo sa prihláste na fórum.


kód:
Len registrovaní užívatelia môžu pozerať odkazy!
Registrujte sa alebo sa prihláste na fórum.


15x07 Atentát I.


kód:
Len registrovaní užívatelia môžu pozerať odkazy!
Registrujte sa alebo sa prihláste na fórum.


kód:
Len registrovaní užívatelia môžu pozerať odkazy!
Registrujte sa alebo sa prihláste na fórum.



15x08 Atentát II.

kód:
Len registrovaní užívatelia môžu pozerať odkazy!
Registrujte sa alebo sa prihláste na fórum.


kód:
Len registrovaní užívatelia môžu pozerať odkazy!
Registrujte sa alebo sa prihláste na fórum.


Naposledy upravil pawek dne 31 srpen 2011, 17:54, celkově upraveno 8 krát.

Zobrazit informace o autoroviOdeslat soukromou zprávu
CitovatNávrat nahoru
Platan01
Medium Downloader
 

 
Založen: 27.12.2008 
Příspěvky: 50 
 
PříspěvekPředmět: soubor .mp4 na .avi
Description:
ZaslalZaslal: 09 srpen 2011, 2:08

[quote="pawek"]Kobra 11 cz



kód:
Len registrovaní užívatelia môžu pozerať odkazy!
Registrujte sa alebo sa prihláste na fórum.

Prosím mohl bys tento díl také uložit ve formátu .avi?
Dík, Petr.

Zobrazit informace o autoroviOdeslat soukromou zprávu
CitovatNávrat nahoru
mysickyivisek
Downloader
 

 
Založen: 31.1.2008 
Příspěvky: 126 
 
PříspěvekPředmět: Kobra 11 (Alarm für Cobra 11 - Die Autobahnpolizei) 1 až 14+ sezóna CZ
Description:
ZaslalZaslal: 10 květen 2013, 22:38

Kobra 11 (Alarm für Cobra 11 - Die Autobahnpolizei) 1 až 14+ sezóna CZ

info:
kód:
Len registrovaní užívatelia môžu pozerať odkazy!
Registrujte sa alebo sa prihláste na fórum.




V případě nefunkčnosti linků mi pište zprávy.


Llinklisty:


kód:
Len registrovaní užívatelia môžu pozerať odkazy!
Registrujte sa alebo sa prihláste na fórum.



kód:
Len registrovaní užívatelia môžu pozerať odkazy!
Registrujte sa alebo sa prihláste na fórum.



kód:
Len registrovaní užívatelia môžu pozerať odkazy!
Registrujte sa alebo sa prihláste na fórum.



kód:
Len registrovaní užívatelia môžu pozerať odkazy!
Registrujte sa alebo sa prihláste na fórum.



kód:
Len registrovaní užívatelia môžu pozerať odkazy!
Registrujte sa alebo sa prihláste na fórum.





kód:
Len registrovaní užívatelia môžu pozerať odkazy!
Registrujte sa alebo sa prihláste na fórum.





kód:
Len registrovaní užívatelia môžu pozerať odkazy!
Registrujte sa alebo sa prihláste na fórum.

_________________

Zobrazit informace o autoroviOdeslat soukromou zprávu
CitovatNávrat nahoru
mysickyivisek
Downloader
 

 
Založen: 31.1.2008 
Příspěvky: 126 
 
PříspěvekPředmět:
Description:
ZaslalZaslal: 10 květen 2013, 22:39



kód:
Len registrovaní užívatelia môžu pozerať odkazy!
Registrujte sa alebo sa prihláste na fórum.





kód:
Len registrovaní užívatelia môžu pozerať odkazy!
Registrujte sa alebo sa prihláste na fórum.





kód:
Len registrovaní užívatelia môžu pozerať odkazy!
Registrujte sa alebo sa prihláste na fórum.

_________________

Zobrazit informace o autoroviOdeslat soukromou zprávu
CitovatNávrat nahoru
mysickyivisek
Downloader
 

 
Založen: 31.1.2008 
Příspěvky: 126 
 
PříspěvekPředmět:
Description:
ZaslalZaslal: 10 květen 2013, 22:39



kód:
Len registrovaní užívatelia môžu pozerať odkazy!
Registrujte sa alebo sa prihláste na fórum.




V případě nefunkčnosti linků mi pište zprávy.

_________________

Zobrazit informace o autoroviOdeslat soukromou zprávu
CitovatNávrat nahoru
Europa2dj
Přispěvatel
 

 
Založen: 6.2.2011 
Příspěvky: 619 
 
PříspěvekPředmět:
Description:
ZaslalZaslal: 23 srpen 2017, 20:20

Kobra 11 / Alarm fur Cobra 11 - Die Autobahnpolizei (CZ) - 1. Séria


kód:
Len registrovaní užívatelia môžu pozerať odkazy!
Registrujte sa alebo sa prihláste na fórum.

Jazyk: Český
Titulky: Ne
Žánr: Akční / Krimi / Drama
Země: Německo
Rok vydání: 1996 - 2013

Kvalita:

1. série (Bomby na 92. kilometru)
Formát : AVI
Formát/ : Audio Video Interleave
Velikost souboru : 812 MiB
Duration/String : 1h 34mn
Celkový BitRate : 1 208 Kbps
Použitý software : VirtualDubMod 1.5.10.2 (build 2540/release)
Enkódoval : VirtualDubMod build 2540/release

Video
ID : 0
Formát : MPEG-4 Visual
Format_Profile : Advanced Simple@L5
Format_Settings_BVOP/String : 1
Format_Settings_QPel/String : Ne
Format_Settings_GMC/String : 0 warppoint
CodecID : XVID
/ : XviD
Duration/String : 1h 34mn
Bit rate : 1 068 Kbps
Šířka : 720pixely
Výška : 544pixely
Poměr stran : 4:3
Frame rate : 25,000 fps
ColorSpace : YUV
ChromaSubsampling : 4:2:0
BitDepth/String : 8 bits
ScanType/String : Progressive
Bits/(Pixel*Frame) : 0.109
StreamSize/String : 718 MiB (88%)
Enkódoval : XviD 1.2.0.dev47 (UTC 2006-11-01)

Audio
ID : 1
Formát : MPEG Audio
Format_Version : Version 1
Format_Profile : Layer 3
Format_Settings_Mode : Joint stereo
CodecID : 55
/ : MP3
Duration/String : 1h 34mn
Bit rate : 127 Kbps
BitRate_Nominal/String : 160 Kbps
Kanál(y) : 2 kanály
Sampling rate : 48,0 KHz
StreamSize/String : 85,6 MiB (11%)
Interleave_Duration/String : 24 ms (0.60 video frames)
Interleave_Preload/String : 576 ms
Enkódoval : LAME3.97
Nastavení enkoderu : -m j -V 4 -q 2 -lowpass 17.5 --abr 160

Obsah:
Ich revírom je diaľnica, ich tempo vražedné, ich súpermi sú zlodeji áut, vrahovia, vydierači...
Hlavnými hrdinami azda najúspešnejšieho nemeckého akčného krimiseriálu vôbec, sú dvaja skvelo zohratí policajní dôstojníci fiktívneho kriminálneho oddelenia diaľničnej polície. V úplne prvých častiach seriálu tento tím tvorili komisári Frank Stolte (Johannes Brandrup) a Ingo Fischer (Rainer Strecker), no už v tretej epizóde vstúpil do deja dnes už služobne najstarší - a zjavne i najvytrvalejší a najodolnejší - komisár Semir Gerkhan (Erdogan Atalay) a nahradil Inga, ktorého zastrelili v akcii. O ďalších sedem epizód nahradil jeho partnera Franka, v podstate bez vysvetlenia, drsný komisár André Fux (Mark Keller), ktorý tragicky zahynul na konci tretej série pri nasadení na Malorke, keď sa po zásahu harpúnou zrútil do Stredozemného mora. jeho telo sa však nikdy nenašlo.

Od pilotného filmu k štvrtej sérii sa novým Semirovým partnerom stal komisár Tom Kranich (René Steinke), s ktorým – s menšou prestávkou – vytvoril nerozlučnú dvojicu viac ako sedem rokov! Na začiatku siedmej série dostal Semir nového partnera, pretože Tom sa po tragickej smrti svojej tehotnej priateľky pri výbuchu bomby, ktorú im do auta nastražil drogový díler a ktorá vlastne mala zabiť jeho, psychicky zrútil a od svojho náročného zamestnania si potreboval oddýchnuť, na neurčito... Jeho nástupcom sa stal mladý dynamický komisár Jan Richter (Christian Oliver), ktorý sa k diaľničnej polícii nechal preveliť z oddelenia krádeží. Na konci ôsmej série sa Jan z deja vyparil, vysvetlenie jeho zmiznutia i tentoraz absentovalo... Na začiatku deviatej série však Semir vyhľadal Toma a požiadal ho o pomoc pri vyšetrovaní aktuálneho prípadu – bol totiž jediný, kto poznal tvár bombového atentátnika, ktorého považovali za mŕtveho a ktorého dovtedy nik nedokázal spoľahlivo identifikovať. A hoci Tom pôvodne plánoval po uzavretí tohto prípadu svoju prácu definitívne zavesiť na klinec, rozhodol sa napokon pre pravý opak – vrátil sa k diaľničnej polícii a znovu sa stal Semirovým partnerom. Toto rozhodnutie sa však v konečnom dôsledku pre oboch ukázalo ako tragické, ba priam osudové - na konci desiatej série totiž Toma zastrelili...

Od jedenástej série sa prázdne miesto po Semirovom boku snažil zaplniť skúsený komisár Chris Ritter (Gedeon Burkhard), pracujúci dlhé roky v utajení, ktorý však len po dvoch sériách tragicky zahynul pri pokuse o záchranu bývalej priateľky. Od trinástej série sa tak novým Semirovým partnerom stal mladý komisár Ben Jäger (Tom Beck)!

1.Séria - 9 častí
Download:

Kobra 11 S01E01 - Bomby na 92. kilometru

Kobra 11 S01E02 - Rudé růže, černá smrt
kód:
Len registrovaní užívatelia môžu pozerať odkazy!
Registrujte sa alebo sa prihláste na fórum.

Kobra 11 S01E03 - Nový parťák
kód:
Len registrovaní užívatelia môžu pozerať odkazy!
Registrujte sa alebo sa prihláste na fórum.

Kobra 11 S01E04 - Vražda a zabití
kód:
Len registrovaní užívatelia môžu pozerať odkazy!
Registrujte sa alebo sa prihláste na fórum.

Kobra 11 S01E05 - Smrt na stovce
kód:
Len registrovaní užívatelia môžu pozerať odkazy!
Registrujte sa alebo sa prihláste na fórum.

Kobra 11 S01E06 - Stařec a chlapec
kód:
Len registrovaní užívatelia môžu pozerať odkazy!
Registrujte sa alebo sa prihláste na fórum.

Kobra 11 S01E07 - Falešní policisté
kód:
Len registrovaní užívatelia môžu pozerať odkazy!
Registrujte sa alebo sa prihláste na fórum.

Kobra 11 S01E08 - Samuraj
kód:
Len registrovaní užívatelia môžu pozerať odkazy!
Registrujte sa alebo sa prihláste na fórum.

Kobra 11 S01E09 - Konečná pro všechny
kód:
Len registrovaní užívatelia môžu pozerať odkazy!
Registrujte sa alebo sa prihláste na fórum.


Password:

No!!!

Zobrazit informace o autoroviOdeslat soukromou zprávu
CitovatNávrat nahoru
Europa2dj
Přispěvatel
 

 
Založen: 6.2.2011 
Příspěvky: 619 
 
PříspěvekPředmět:
Description:
ZaslalZaslal: 23 srpen 2017, 20:26

Kobra 11 / Alarm fur Cobra 11 - Die Autobahnpolizei (CZ) - 2. Séria


kód:
Len registrovaní užívatelia môžu pozerať odkazy!
Registrujte sa alebo sa prihláste na fórum.

Jazyk: Český
Titulky: Ne
Žánr: Akční / Krimi / Drama
Země: Německo
Rok vydání: 1996 - 2013

Kvalita:

Format : AVI
Format/Info : Audio Video Interleave
File size : 406 MiB
Duration : 46 min 39 s
Overall bit rate mode : Variable
Overall bit rate : 1 218 kb/s
Writing application : VirtualDubMod 1.5.10.2 (build 2540/release)
Writing library : VirtualDubMod build 2540/release

Video
ID : 0
Format : MPEG-4 Visual
Format profile : Advanced Simple@L5
Format settings, BVOP : 1
Format settings, QPel : No
Format settings, GMC : No warppoints
Format settings, Matrix : Custom
Codec ID : XVID
Codec ID/Hint : XviD
Duration : 46 min 39 s
Bit rate : 1 080 kb/s
Width : 720 pixels
Height : 544 pixels
Display aspect ratio : 4:3
Frame rate : 25.000 FPS
Color space : YUV
Chroma subsampling : 4:2:0
Bit depth : 8 bits
Scan type : Progressive
Compression mode : Lossy
Bits/(Pixel*Frame) : 0.110
Stream size : 360 MiB (89%)
Writing library : XviD 1.2.0.dev47 (UTC 2006-11-01)

Audio
ID : 1
Format : MPEG Audio
Format version : Version 1
Format profile : Layer 3
Mode : Joint stereo
Mode extension : MS Stereo
Codec ID : 55
Codec ID/Hint : MP3
Duration : 46 min 39 s
Bit rate mode : Variable
Bit rate : 125 kb/s
Nominal bit rate : 160 kb/s
Channel(s) : 2 channels
Sampling rate : 48.0 kHz
Compression mode : Lossy
Stream size : 41.8 MiB (10%)
Alignment : Aligned on interleaves
Interleave, duration : 24 ms (0.60 video frame)
Interleave, preload duration : 459 ms
Writing library : LAME3.97
Encoding settings : -m j -V 4 -q 2 -lowpass 17.5 --abr 160
Language : Cech

Obsah:
Ich revírom je diaľnica, ich tempo vražedné, ich súpermi sú zlodeji áut, vrahovia, vydierači...
Hlavnými hrdinami azda najúspešnejšieho nemeckého akčného krimiseriálu vôbec, sú dvaja skvelo zohratí policajní dôstojníci fiktívneho kriminálneho oddelenia diaľničnej polície. V úplne prvých častiach seriálu tento tím tvorili komisári Frank Stolte (Johannes Brandrup) a Ingo Fischer (Rainer Strecker), no už v tretej epizóde vstúpil do deja dnes už služobne najstarší - a zjavne i najvytrvalejší a najodolnejší - komisár Semir Gerkhan (Erdogan Atalay) a nahradil Inga, ktorého zastrelili v akcii. O ďalších sedem epizód nahradil jeho partnera Franka, v podstate bez vysvetlenia, drsný komisár André Fux (Mark Keller), ktorý tragicky zahynul na konci tretej série pri nasadení na Malorke, keď sa po zásahu harpúnou zrútil do Stredozemného mora. jeho telo sa však nikdy nenašlo.

Od pilotného filmu k štvrtej sérii sa novým Semirovým partnerom stal komisár Tom Kranich (René Steinke), s ktorým – s menšou prestávkou – vytvoril nerozlučnú dvojicu viac ako sedem rokov! Na začiatku siedmej série dostal Semir nového partnera, pretože Tom sa po tragickej smrti svojej tehotnej priateľky pri výbuchu bomby, ktorú im do auta nastražil drogový díler a ktorá vlastne mala zabiť jeho, psychicky zrútil a od svojho náročného zamestnania si potreboval oddýchnuť, na neurčito... Jeho nástupcom sa stal mladý dynamický komisár Jan Richter (Christian Oliver), ktorý sa k diaľničnej polícii nechal preveliť z oddelenia krádeží. Na konci ôsmej série sa Jan z deja vyparil, vysvetlenie jeho zmiznutia i tentoraz absentovalo... Na začiatku deviatej série však Semir vyhľadal Toma a požiadal ho o pomoc pri vyšetrovaní aktuálneho prípadu – bol totiž jediný, kto poznal tvár bombového atentátnika, ktorého považovali za mŕtveho a ktorého dovtedy nik nedokázal spoľahlivo identifikovať. A hoci Tom pôvodne plánoval po uzavretí tohto prípadu svoju prácu definitívne zavesiť na klinec, rozhodol sa napokon pre pravý opak – vrátil sa k diaľničnej polícii a znovu sa stal Semirovým partnerom. Toto rozhodnutie sa však v konečnom dôsledku pre oboch ukázalo ako tragické, ba priam osudové - na konci desiatej série totiž Toma zastrelili...

Od jedenástej série sa prázdne miesto po Semirovom boku snažil zaplniť skúsený komisár Chris Ritter (Gedeon Burkhard), pracujúci dlhé roky v utajení, ktorý však len po dvoch sériách tragicky zahynul pri pokuse o záchranu bývalej priateľky. Od trinástej série sa tak novým Semirovým partnerom stal mladý komisár Ben Jäger (Tom Beck)!

2.Séria - 22 častí
Download:

Kobra 11 S02E01 - Brokovnice
kód:
Len registrovaní užívatelia môžu pozerať odkazy!
Registrujte sa alebo sa prihláste na fórum.

Kobra 11 S02E02 - Nalezenec
kód:
Len registrovaní užívatelia môžu pozerať odkazy!
Registrujte sa alebo sa prihláste na fórum.

Kobra 11 S02E03 - Chladokrevně
kód:
Len registrovaní užívatelia môžu pozerať odkazy!
Registrujte sa alebo sa prihláste na fórum.

Kobra 11 S02E04 - Nouzové přistání
kód:
Len registrovaní užívatelia môžu pozerať odkazy!
Registrujte sa alebo sa prihláste na fórum.

Kobra 11 S02E05 - Atentát
kód:
Len registrovaní užívatelia môžu pozerať odkazy!
Registrujte sa alebo sa prihláste na fórum.

Kobra 11 S02E06 - Ztracená dcera
kód:
Len registrovaní užívatelia môžu pozerať odkazy!
Registrujte sa alebo sa prihláste na fórum.

Kobra 11 S02E07 - Pomsta je sladká
kód:
Len registrovaní užívatelia môžu pozerať odkazy!
Registrujte sa alebo sa prihláste na fórum.

Kobra 11 S02E08 - Selhaní brzd
kód:
Len registrovaní užívatelia môžu pozerať odkazy!
Registrujte sa alebo sa prihláste na fórum.

Kobra 11 S02E09 - Srážka
kód:
Len registrovaní užívatelia môžu pozerať odkazy!
Registrujte sa alebo sa prihláste na fórum.

Kobra 11 S02E10 - Dětské starosti
kód:
Len registrovaní užívatelia môžu pozerať odkazy!
Registrujte sa alebo sa prihláste na fórum.

Kobra 11 S02E11 - Generální zkouška
kód:
Len registrovaní užívatelia môžu pozerať odkazy!
Registrujte sa alebo sa prihláste na fórum.

Kobra 11 S02E12 - Loupeživý rytíř
kód:
Len registrovaní užívatelia môžu pozerať odkazy!
Registrujte sa alebo sa prihláste na fórum.

Kobra 11 S02E13 - Stop volej
kód:
Len registrovaní užívatelia môžu pozerať odkazy!
Registrujte sa alebo sa prihláste na fórum.

Kobra 11 S02E14 - Uhoď
kód:
Len registrovaní užívatelia môžu pozerať odkazy!
Registrujte sa alebo sa prihláste na fórum.

Kobra 11 S02E15 - Děti slunce
kód:
Len registrovaní užívatelia môžu pozerať odkazy!
Registrujte sa alebo sa prihláste na fórum.

Kobra 11 S02E16 - Mezi dvěma kameny
kód:
Len registrovaní užívatelia môžu pozerať odkazy!
Registrujte sa alebo sa prihláste na fórum.

Kobra 11 S02E17 - Shnilá jablka
kód:
Len registrovaní užívatelia môžu pozerať odkazy!
Registrujte sa alebo sa prihláste na fórum.

Kobra 11 S02E18 - Kratký oddech
kód:
Len registrovaní užívatelia môžu pozerať odkazy!
Registrujte sa alebo sa prihláste na fórum.

Kobra 11 S02E19 - Jed
kód:
Len registrovaní užívatelia môžu pozerať odkazy!
Registrujte sa alebo sa prihláste na fórum.

Kobra 11 S02E20 - Smrticí sláva
kód:
Len registrovaní užívatelia môžu pozerať odkazy!
Registrujte sa alebo sa prihláste na fórum.

Kobra 11 S02E21 - Překupníci
kód:
Len registrovaní užívatelia môžu pozerať odkazy!
Registrujte sa alebo sa prihláste na fórum.

Kobra 11 S02E22 - Pohřební vůz
kód:
Len registrovaní užívatelia môžu pozerať odkazy!
Registrujte sa alebo sa prihláste na fórum.


Password:

No!!!

Zobrazit informace o autoroviOdeslat soukromou zprávu
CitovatNávrat nahoru
Europa2dj
Přispěvatel
 

 
Založen: 6.2.2011 
Příspěvky: 619 
 
PříspěvekPředmět:
Description:
ZaslalZaslal: 23 srpen 2017, 20:28

Kobra 11 / Alarm fur Cobra 11 - Die Autobahnpolizei (CZ) - 3. Séria


kód:
Len registrovaní užívatelia môžu pozerať odkazy!
Registrujte sa alebo sa prihláste na fórum.

Jazyk: Český
Titulky: Ne
Žánr: Akční / Krimi / Drama
Země: Německo
Rok vydání: 1996 - 2013

Kvalita:

Format : AVI
Format/Info : Audio Video Interleave
File size : 406 MiB
Duration : 46 min 3 s
Overall bit rate mode : Variable
Overall bit rate : 1 233 kb/s
Writing application : VirtualDubMod 1.5.10.2 (build 2540/release)
Writing library : VirtualDubMod build 2540/release

Video
ID : 0
Format : MPEG-4 Visual
Format profile : Advanced Simple@L5
Format settings, BVOP : 1
Format settings, QPel : No
Format settings, GMC : No warppoints
Format settings, Matrix : Custom
Codec ID : XVID
Codec ID/Hint : XviD
Duration : 46 min 3 s
Bit rate : 1 085 kb/s
Width : 720 pixels
Height : 544 pixels
Display aspect ratio : 4:3
Frame rate : 25.000 FPS
Color space : YUV
Chroma subsampling : 4:2:0
Bit depth : 8 bits
Scan type : Progressive
Compression mode : Lossy
Bits/(Pixel*Frame) : 0.111
Stream size : 357 MiB (88%)
Writing library : XviD 1.2.0.dev47 (UTC 2006-11-01)

Audio
ID : 1
Format : MPEG Audio
Format version : Version 1
Format profile : Layer 3
Mode : Joint stereo
Mode extension : MS Stereo
Codec ID : 55
Codec ID/Hint : MP3
Duration : 46 min 3 s
Bit rate mode : Variable
Bit rate : 135 kb/s
Nominal bit rate : 160 kb/s
Channel(s) : 2 channels
Sampling rate : 48.0 kHz
Compression mode : Lossy
Stream size : 44.4 MiB (11%)
Alignment : Aligned on interleaves
Interleave, duration : 24 ms (0.60 video frame)
Interleave, preload duration : 533 ms
Writing library : LAME3.97
Encoding settings : -m j -V 4 -q 2 -lowpass 17.5 --abr 160
Language : Cech

Obsah:
Ich revírom je diaľnica, ich tempo vražedné, ich súpermi sú zlodeji áut, vrahovia, vydierači...
Hlavnými hrdinami azda najúspešnejšieho nemeckého akčného krimiseriálu vôbec, sú dvaja skvelo zohratí policajní dôstojníci fiktívneho kriminálneho oddelenia diaľničnej polície. V úplne prvých častiach seriálu tento tím tvorili komisári Frank Stolte (Johannes Brandrup) a Ingo Fischer (Rainer Strecker), no už v tretej epizóde vstúpil do deja dnes už služobne najstarší - a zjavne i najvytrvalejší a najodolnejší - komisár Semir Gerkhan (Erdogan Atalay) a nahradil Inga, ktorého zastrelili v akcii. O ďalších sedem epizód nahradil jeho partnera Franka, v podstate bez vysvetlenia, drsný komisár André Fux (Mark Keller), ktorý tragicky zahynul na konci tretej série pri nasadení na Malorke, keď sa po zásahu harpúnou zrútil do Stredozemného mora. jeho telo sa však nikdy nenašlo.

Od pilotného filmu k štvrtej sérii sa novým Semirovým partnerom stal komisár Tom Kranich (René Steinke), s ktorým – s menšou prestávkou – vytvoril nerozlučnú dvojicu viac ako sedem rokov! Na začiatku siedmej série dostal Semir nového partnera, pretože Tom sa po tragickej smrti svojej tehotnej priateľky pri výbuchu bomby, ktorú im do auta nastražil drogový díler a ktorá vlastne mala zabiť jeho, psychicky zrútil a od svojho náročného zamestnania si potreboval oddýchnuť, na neurčito... Jeho nástupcom sa stal mladý dynamický komisár Jan Richter (Christian Oliver), ktorý sa k diaľničnej polícii nechal preveliť z oddelenia krádeží. Na konci ôsmej série sa Jan z deja vyparil, vysvetlenie jeho zmiznutia i tentoraz absentovalo... Na začiatku deviatej série však Semir vyhľadal Toma a požiadal ho o pomoc pri vyšetrovaní aktuálneho prípadu – bol totiž jediný, kto poznal tvár bombového atentátnika, ktorého považovali za mŕtveho a ktorého dovtedy nik nedokázal spoľahlivo identifikovať. A hoci Tom pôvodne plánoval po uzavretí tohto prípadu svoju prácu definitívne zavesiť na klinec, rozhodol sa napokon pre pravý opak – vrátil sa k diaľničnej polícii a znovu sa stal Semirovým partnerom. Toto rozhodnutie sa však v konečnom dôsledku pre oboch ukázalo ako tragické, ba priam osudové - na konci desiatej série totiž Toma zastrelili...

Od jedenástej série sa prázdne miesto po Semirovom boku snažil zaplniť skúsený komisár Chris Ritter (Gedeon Burkhard), pracujúci dlhé roky v utajení, ktorý však len po dvoch sériách tragicky zahynul pri pokuse o záchranu bývalej priateľky. Od trinástej série sa tak novým Semirovým partnerom stal mladý komisár Ben Jäger (Tom Beck)!

3.Séria - 16 častí
Download:

Kobra 11 S03E01 - Poslední šance
kód:
Len registrovaní užívatelia môžu pozerať odkazy!
Registrujte sa alebo sa prihláste na fórum.

Kobra 11 S03E02 - Tank na scestí
kód:
Len registrovaní užívatelia môžu pozerať odkazy!
Registrujte sa alebo sa prihláste na fórum.

Kobra 11 S03E03 - Stopařka

Kobra 11 S03E04 - Mrtvý svědek
kód:
Len registrovaní užívatelia môžu pozerať odkazy!
Registrujte sa alebo sa prihláste na fórum.

Kobra 11 S03E05 - Smrtící písek
kód:
Len registrovaní užívatelia môžu pozerať odkazy!
Registrujte sa alebo sa prihláste na fórum.

Kobra 11 S03E06 - Ztracená v mlze
kód:
Len registrovaní užívatelia môžu pozerať odkazy!
Registrujte sa alebo sa prihláste na fórum.

Kobra 11 S03E07 - Žolík
kód:
Len registrovaní užívatelia môžu pozerať odkazy!
Registrujte sa alebo sa prihláste na fórum.

Kobra 11 S03E08 - Na mušce
kód:
Len registrovaní užívatelia môžu pozerať odkazy!
Registrujte sa alebo sa prihláste na fórum.

Kobra 11 S03E09 - Přehnaná ctižádost
kód:
Len registrovaní užívatelia môžu pozerať odkazy!
Registrujte sa alebo sa prihláste na fórum.

Kobra 11 S03E10 - Smrtící náklad

Kobra 11 S03E11 - Benzín
kód:
Len registrovaní užívatelia môžu pozerať odkazy!
Registrujte sa alebo sa prihláste na fórum.

Kobra 11 S03E12 - Taxi 541
kód:
Len registrovaní užívatelia môžu pozerať odkazy!
Registrujte sa alebo sa prihláste na fórum.

Kobra 11 S03E13 - Stínový bojovník
kód:
Len registrovaní užívatelia môžu pozerať odkazy!
Registrujte sa alebo sa prihláste na fórum.

Kobra 11 S03E14 - Soudce
kód:
Len registrovaní užívatelia môžu pozerať odkazy!
Registrujte sa alebo sa prihláste na fórum.

Kobra 11 S03E15 - Smrt chlapce
kód:
Len registrovaní užívatelia môžu pozerať odkazy!
Registrujte sa alebo sa prihláste na fórum.

Kobra 11 S03E16 - Osamělé vítězství
kód:
Len registrovaní užívatelia môžu pozerať odkazy!
Registrujte sa alebo sa prihláste na fórum.


Password:

No!!!

Zobrazit informace o autoroviOdeslat soukromou zprávu
CitovatNávrat nahoru
Europa2dj
Přispěvatel
 

 
Založen: 6.2.2011 
Příspěvky: 619 
 
PříspěvekPředmět:
Description:
ZaslalZaslal: 23 srpen 2017, 20:29

Kobra 11 / Alarm fur Cobra 11 - Die Autobahnpolizei (CZ) - 4. Séria


kód:
Len registrovaní užívatelia môžu pozerať odkazy!
Registrujte sa alebo sa prihláste na fórum.

Jazyk: Český
Titulky: Ne
Žánr: Akční / Krimi / Drama
Země: Německo
Rok vydání: 1996 - 2013

Kvalita:

Format : AVI
Format/Info : Audio Video Interleave
File size : 813 MiB
Duration : 1 h 26 min
Overall bit rate mode : Variable
Overall bit rate : 1 309 kb/s
Writing application : VirtualDubMod 1.5.10.2 (build 2540/release)
Writing library : VirtualDubMod build 2540/release

Video
ID : 0
Format : MPEG-4 Visual
Format profile : Advanced Simple@L5
Format settings, BVOP : 1
Format settings, QPel : No
Format settings, GMC : No warppoints
Format settings, Matrix : Custom
Codec ID : XVID
Codec ID/Hint : XviD
Duration : 1 h 26 min
Bit rate : 1 160 kb/s
Width : 720 pixels
Height : 544 pixels
Display aspect ratio : 4:3
Frame rate : 25.000 FPS
Color space : YUV
Chroma subsampling : 4:2:0
Bit depth : 8 bits
Scan type : Progressive
Compression mode : Lossy
Bits/(Pixel*Frame) : 0.118
Stream size : 720 MiB (89%)
Writing library : XviD 1.2.0.dev47 (UTC 2006-11-01)

Audio
ID : 1
Format : MPEG Audio
Format version : Version 1
Format profile : Layer 3
Mode : Joint stereo
Mode extension : MS Stereo
Codec ID : 55
Codec ID/Hint : MP3
Duration : 1 h 26 min
Bit rate mode : Variable
Bit rate : 137 kb/s
Nominal bit rate : 160 kb/s
Channel(s) : 2 channels
Sampling rate : 48.0 kHz
Compression mode : Lossy
Stream size : 84.9 MiB (10%)
Alignment : Aligned on interleaves
Interleave, duration : 24 ms (0.60 video frame)
Interleave, preload duration : 334 ms
Writing library : LAME3.97
Encoding settings : -m j -V 4 -q 2 -lowpass 17.5 --abr 160
Language : Cech

Obsah:
Ich revírom je diaľnica, ich tempo vražedné, ich súpermi sú zlodeji áut, vrahovia, vydierači...
Hlavnými hrdinami azda najúspešnejšieho nemeckého akčného krimiseriálu vôbec, sú dvaja skvelo zohratí policajní dôstojníci fiktívneho kriminálneho oddelenia diaľničnej polície. V úplne prvých častiach seriálu tento tím tvorili komisári Frank Stolte (Johannes Brandrup) a Ingo Fischer (Rainer Strecker), no už v tretej epizóde vstúpil do deja dnes už služobne najstarší - a zjavne i najvytrvalejší a najodolnejší - komisár Semir Gerkhan (Erdogan Atalay) a nahradil Inga, ktorého zastrelili v akcii. O ďalších sedem epizód nahradil jeho partnera Franka, v podstate bez vysvetlenia, drsný komisár André Fux (Mark Keller), ktorý tragicky zahynul na konci tretej série pri nasadení na Malorke, keď sa po zásahu harpúnou zrútil do Stredozemného mora. jeho telo sa však nikdy nenašlo.

Od pilotného filmu k štvrtej sérii sa novým Semirovým partnerom stal komisár Tom Kranich (René Steinke), s ktorým – s menšou prestávkou – vytvoril nerozlučnú dvojicu viac ako sedem rokov! Na začiatku siedmej série dostal Semir nového partnera, pretože Tom sa po tragickej smrti svojej tehotnej priateľky pri výbuchu bomby, ktorú im do auta nastražil drogový díler a ktorá vlastne mala zabiť jeho, psychicky zrútil a od svojho náročného zamestnania si potreboval oddýchnuť, na neurčito... Jeho nástupcom sa stal mladý dynamický komisár Jan Richter (Christian Oliver), ktorý sa k diaľničnej polícii nechal preveliť z oddelenia krádeží. Na konci ôsmej série sa Jan z deja vyparil, vysvetlenie jeho zmiznutia i tentoraz absentovalo... Na začiatku deviatej série však Semir vyhľadal Toma a požiadal ho o pomoc pri vyšetrovaní aktuálneho prípadu – bol totiž jediný, kto poznal tvár bombového atentátnika, ktorého považovali za mŕtveho a ktorého dovtedy nik nedokázal spoľahlivo identifikovať. A hoci Tom pôvodne plánoval po uzavretí tohto prípadu svoju prácu definitívne zavesiť na klinec, rozhodol sa napokon pre pravý opak – vrátil sa k diaľničnej polícii a znovu sa stal Semirovým partnerom. Toto rozhodnutie sa však v konečnom dôsledku pre oboch ukázalo ako tragické, ba priam osudové - na konci desiatej série totiž Toma zastrelili...

Od jedenástej série sa prázdne miesto po Semirovom boku snažil zaplniť skúsený komisár Chris Ritter (Gedeon Burkhard), pracujúci dlhé roky v utajení, ktorý však len po dvoch sériách tragicky zahynul pri pokuse o záchranu bývalej priateľky. Od trinástej série sa tak novým Semirovým partnerom stal mladý komisár Ben Jäger (Tom Beck)!

4.Séria - 16 častí
Download:

Kobra 11 S04E01 - Pekelná jízda na dálnici A4
kód:
Len registrovaní užívatelia môžu pozerať odkazy!
Registrujte sa alebo sa prihláste na fórum.

Kobra 11 S04E02 - Zajíc a ježek
kód:
Len registrovaní užívatelia môžu pozerať odkazy!
Registrujte sa alebo sa prihláste na fórum.

Kobra 11 S04E03 - Na útěku
kód:
Len registrovaní užívatelia môžu pozerať odkazy!
Registrujte sa alebo sa prihláste na fórum.

Kobra 11 S04E04 - Nepříjemné překvapení
kód:
Len registrovaní užívatelia môžu pozerať odkazy!
Registrujte sa alebo sa prihláste na fórum.

Kobra 11 S04E05 - Slepá láska
kód:
Len registrovaní užívatelia môžu pozerať odkazy!
Registrujte sa alebo sa prihláste na fórum.

Kobra 11 S04E06 - Tulipány z Amsterodamu
kód:
Len registrovaní užívatelia môžu pozerať odkazy!
Registrujte sa alebo sa prihláste na fórum.

Kobra 11 S04E07 - Maniak na dálnici
kód:
Len registrovaní užívatelia môžu pozerať odkazy!
Registrujte sa alebo sa prihláste na fórum.

Kobra 11 S04E08 - Janina
kód:
Len registrovaní užívatelia môžu pozerať odkazy!
Registrujte sa alebo sa prihláste na fórum.

Kobra 11 S04E09 - Tajemná moc
kód:
Len registrovaní užívatelia môžu pozerať odkazy!
Registrujte sa alebo sa prihláste na fórum.

Kobra 11 S04E10 - Chata u jezera
kód:
Len registrovaní užívatelia môžu pozerať odkazy!
Registrujte sa alebo sa prihláste na fórum.

Kobra 11 S04E11 - Nebezpečná hra
kód:
Len registrovaní užívatelia môžu pozerať odkazy!
Registrujte sa alebo sa prihláste na fórum.

Kobra 11 S04E12 - Ztracené vzpomínky
kód:
Len registrovaní užívatelia môžu pozerať odkazy!
Registrujte sa alebo sa prihláste na fórum.

Kobra 11 S04E13 - Černá růže
kód:
Len registrovaní užívatelia môžu pozerať odkazy!
Registrujte sa alebo sa prihláste na fórum.

Kobra 11 S04E14 - Mat
kód:
Len registrovaní užívatelia môžu pozerať odkazy!
Registrujte sa alebo sa prihláste na fórum.

Kobra 11 S04E15 - Schumannova velká šance
kód:
Len registrovaní užívatelia môžu pozerať odkazy!
Registrujte sa alebo sa prihláste na fórum.

Kobra 11 S04E16 - Krtek
kód:
Len registrovaní užívatelia môžu pozerať odkazy!
Registrujte sa alebo sa prihláste na fórum.


Password:

No!!!

Zobrazit informace o autoroviOdeslat soukromou zprávu
CitovatNávrat nahoru
Europa2dj
Přispěvatel
 

 
Založen: 6.2.2011 
Příspěvky: 619 
 
PříspěvekPředmět:
Description:
ZaslalZaslal: 23 srpen 2017, 20:30

Kobra 11 / Alarm fur Cobra 11 - Die Autobahnpolizei (CZ) - 5. Séria


kód:
Len registrovaní užívatelia môžu pozerať odkazy!
Registrujte sa alebo sa prihláste na fórum.

Jazyk: Český
Titulky: Ne
Žánr: Akční / Krimi / Drama
Země: Německo
Rok vydání: 1996 - 2013

Kvalita:

Format : AVI
Format/Info : Audio Video Interleave
File size : 813 MiB
Duration : 1 h 33 min
Overall bit rate mode : Variable
Overall bit rate : 1 215 kb/s
Writing application : VirtualDubMod 1.5.10.2 (build 2540/release)
Writing library : VirtualDubMod build 2540/release

Video
ID : 0
Format : MPEG-4 Visual
Format profile : Advanced Simple@L5
Format settings, BVOP : 1
Format settings, QPel : No
Format settings, GMC : No warppoints
Format settings, Matrix : Custom
Codec ID : XVID
Codec ID/Hint : XviD
Duration : 1 h 33 min
Bit rate : 1 062 kb/s
Width : 720 pixels
Height : 544 pixels
Display aspect ratio : 4:3
Frame rate : 25.000 FPS
Color space : YUV
Chroma subsampling : 4:2:0
Bit depth : 8 bits
Scan type : Progressive
Compression mode : Lossy
Bits/(Pixel*Frame) : 0.108
Stream size : 710 MiB (87%)
Writing library : XviD 1.2.0.dev47 (UTC 2006-11-01)

Audio
ID : 1
Format : MPEG Audio
Format version : Version 1
Format profile : Layer 3
Mode : Joint stereo
Mode extension : MS Stereo
Codec ID : 55
Codec ID/Hint : MP3
Duration : 1 h 33 min
Bit rate mode : Variable
Bit rate : 141 kb/s
Nominal bit rate : 160 kb/s
Channel(s) : 2 channels
Sampling rate : 48.0 kHz
Compression mode : Lossy
Stream size : 94.0 MiB (12%)
Alignment : Aligned on interleaves
Interleave, duration : 24 ms (0.60 video frame)
Interleave, preload duration : 142 ms
Writing library : LAME3.97
Encoding settings : -m j -V 4 -q 2 -lowpass 17.5 --abr 160
Language : Cech

Obsah:
Ich revírom je diaľnica, ich tempo vražedné, ich súpermi sú zlodeji áut, vrahovia, vydierači...
Hlavnými hrdinami azda najúspešnejšieho nemeckého akčného krimiseriálu vôbec, sú dvaja skvelo zohratí policajní dôstojníci fiktívneho kriminálneho oddelenia diaľničnej polície. V úplne prvých častiach seriálu tento tím tvorili komisári Frank Stolte (Johannes Brandrup) a Ingo Fischer (Rainer Strecker), no už v tretej epizóde vstúpil do deja dnes už služobne najstarší - a zjavne i najvytrvalejší a najodolnejší - komisár Semir Gerkhan (Erdogan Atalay) a nahradil Inga, ktorého zastrelili v akcii. O ďalších sedem epizód nahradil jeho partnera Franka, v podstate bez vysvetlenia, drsný komisár André Fux (Mark Keller), ktorý tragicky zahynul na konci tretej série pri nasadení na Malorke, keď sa po zásahu harpúnou zrútil do Stredozemného mora. jeho telo sa však nikdy nenašlo.

Od pilotného filmu k štvrtej sérii sa novým Semirovým partnerom stal komisár Tom Kranich (René Steinke), s ktorým – s menšou prestávkou – vytvoril nerozlučnú dvojicu viac ako sedem rokov! Na začiatku siedmej série dostal Semir nového partnera, pretože Tom sa po tragickej smrti svojej tehotnej priateľky pri výbuchu bomby, ktorú im do auta nastražil drogový díler a ktorá vlastne mala zabiť jeho, psychicky zrútil a od svojho náročného zamestnania si potreboval oddýchnuť, na neurčito... Jeho nástupcom sa stal mladý dynamický komisár Jan Richter (Christian Oliver), ktorý sa k diaľničnej polícii nechal preveliť z oddelenia krádeží. Na konci ôsmej série sa Jan z deja vyparil, vysvetlenie jeho zmiznutia i tentoraz absentovalo... Na začiatku deviatej série však Semir vyhľadal Toma a požiadal ho o pomoc pri vyšetrovaní aktuálneho prípadu – bol totiž jediný, kto poznal tvár bombového atentátnika, ktorého považovali za mŕtveho a ktorého dovtedy nik nedokázal spoľahlivo identifikovať. A hoci Tom pôvodne plánoval po uzavretí tohto prípadu svoju prácu definitívne zavesiť na klinec, rozhodol sa napokon pre pravý opak – vrátil sa k diaľničnej polícii a znovu sa stal Semirovým partnerom. Toto rozhodnutie sa však v konečnom dôsledku pre oboch ukázalo ako tragické, ba priam osudové - na konci desiatej série totiž Toma zastrelili...

Od jedenástej série sa prázdne miesto po Semirovom boku snažil zaplniť skúsený komisár Chris Ritter (Gedeon Burkhard), pracujúci dlhé roky v utajení, ktorý však len po dvoch sériách tragicky zahynul pri pokuse o záchranu bývalej priateľky. Od trinástej série sa tak novým Semirovým partnerom stal mladý komisár Ben Jäger (Tom Beck)!

5.Séria - 17 častí
Download:

kód:
Len registrovaní užívatelia môžu pozerať odkazy!
Registrujte sa alebo sa prihláste na fórum.


Password:

No!!!

Zobrazit informace o autoroviOdeslat soukromou zprávu
CitovatNávrat nahoru
Europa2dj
Přispěvatel
 

 
Založen: 6.2.2011 
Příspěvky: 619 
 
PříspěvekPředmět:
Description:
ZaslalZaslal: 23 srpen 2017, 20:31

Kobra 11 / Alarm fur Cobra 11 - Die Autobahnpolizei (CZ) - 6. Séria


kód:
Len registrovaní užívatelia môžu pozerať odkazy!
Registrujte sa alebo sa prihláste na fórum.

Jazyk: Český
Titulky: Ne
Žánr: Akční / Krimi / Drama
Země: Německo
Rok vydání: 1996 - 2013

Kvalita:

Format : AVI
Format/Info : Audio Video Interleave
File size : 468 MiB
Duration : 46 min 15 s
Overall bit rate : 1 415 kb/s
Writing application : MEncoder dev-CVS-060101-18:59-4.0.2
Writing library : MPlayer

Video
ID : 0
Format : MPEG-4 Visual
Format profile : Simple@L1
Format settings, BVOP : No
Format settings, QPel : No
Format settings, GMC : No warppoints
Format settings, Matrix : Default (H.263)
Codec ID : DIVX
Codec ID/Info : Project Mayo
Codec ID/Hint : DivX 4
Duration : 46 min 14 s
Bit rate : 1 276 kb/s
Width : 656 pixels
Height : 360 pixels
Display aspect ratio : 1.85:1
Frame rate : 25.000 FPS
Color space : YUV
Chroma subsampling : 4:2:0
Bit depth : 8 bits
Scan type : Progressive
Compression mode : Lossy
Bits/(Pixel*Frame) : 0.216
Stream size : 422 MiB (90%)
Writing library : Lavc51.0.0

Audio
ID : 1
Format : AC-3
Format/Info : Audio Coding 3
Mode extension : CM (complete main)
Format settings, Endianness : Big
Codec ID : 2000
Duration : 46 min 15 s
Bit rate mode : Constant
Bit rate : 128 kb/s
Channel(s) : 2 channels
Channel positions : Front: L R
Sampling rate : 48.0 kHz
Frame rate : 31.250 FPS (1536 spf)
Bit depth : 16 bits
Compression mode : Lossy
Stream size : 42.3 MiB (9%)
Alignment : Aligned on interleaves
Interleave, duration : 32 ms (0.80 video frame)
Interleave, preload duration : 512 ms

Obsah:
Ich revírom je diaľnica, ich tempo vražedné, ich súpermi sú zlodeji áut, vrahovia, vydierači...
Hlavnými hrdinami azda najúspešnejšieho nemeckého akčného krimiseriálu vôbec, sú dvaja skvelo zohratí policajní dôstojníci fiktívneho kriminálneho oddelenia diaľničnej polície. V úplne prvých častiach seriálu tento tím tvorili komisári Frank Stolte (Johannes Brandrup) a Ingo Fischer (Rainer Strecker), no už v tretej epizóde vstúpil do deja dnes už služobne najstarší - a zjavne i najvytrvalejší a najodolnejší - komisár Semir Gerkhan (Erdogan Atalay) a nahradil Inga, ktorého zastrelili v akcii. O ďalších sedem epizód nahradil jeho partnera Franka, v podstate bez vysvetlenia, drsný komisár André Fux (Mark Keller), ktorý tragicky zahynul na konci tretej série pri nasadení na Malorke, keď sa po zásahu harpúnou zrútil do Stredozemného mora. jeho telo sa však nikdy nenašlo.

Od pilotného filmu k štvrtej sérii sa novým Semirovým partnerom stal komisár Tom Kranich (René Steinke), s ktorým – s menšou prestávkou – vytvoril nerozlučnú dvojicu viac ako sedem rokov! Na začiatku siedmej série dostal Semir nového partnera, pretože Tom sa po tragickej smrti svojej tehotnej priateľky pri výbuchu bomby, ktorú im do auta nastražil drogový díler a ktorá vlastne mala zabiť jeho, psychicky zrútil a od svojho náročného zamestnania si potreboval oddýchnuť, na neurčito... Jeho nástupcom sa stal mladý dynamický komisár Jan Richter (Christian Oliver), ktorý sa k diaľničnej polícii nechal preveliť z oddelenia krádeží. Na konci ôsmej série sa Jan z deja vyparil, vysvetlenie jeho zmiznutia i tentoraz absentovalo... Na začiatku deviatej série však Semir vyhľadal Toma a požiadal ho o pomoc pri vyšetrovaní aktuálneho prípadu – bol totiž jediný, kto poznal tvár bombového atentátnika, ktorého považovali za mŕtveho a ktorého dovtedy nik nedokázal spoľahlivo identifikovať. A hoci Tom pôvodne plánoval po uzavretí tohto prípadu svoju prácu definitívne zavesiť na klinec, rozhodol sa napokon pre pravý opak – vrátil sa k diaľničnej polícii a znovu sa stal Semirovým partnerom. Toto rozhodnutie sa však v konečnom dôsledku pre oboch ukázalo ako tragické, ba priam osudové - na konci desiatej série totiž Toma zastrelili...

Od jedenástej série sa prázdne miesto po Semirovom boku snažil zaplniť skúsený komisár Chris Ritter (Gedeon Burkhard), pracujúci dlhé roky v utajení, ktorý však len po dvoch sériách tragicky zahynul pri pokuse o záchranu bývalej priateľky. Od trinástej série sa tak novým Semirovým partnerom stal mladý komisár Ben Jäger (Tom Beck)!

6.Séria - 17 častí
Download:

kód:
Len registrovaní užívatelia môžu pozerať odkazy!
Registrujte sa alebo sa prihláste na fórum.


Password:

No!!!

Zobrazit informace o autoroviOdeslat soukromou zprávu
CitovatNávrat nahoru
Europa2dj
Přispěvatel
 

 
Založen: 6.2.2011 
Příspěvky: 619 
 
PříspěvekPředmět:
Description:
ZaslalZaslal: 23 srpen 2017, 20:32

Kobra 11 / Alarm fur Cobra 11 - Die Autobahnpolizei (CZ) - 7. Séria


kód:
Len registrovaní užívatelia môžu pozerať odkazy!
Registrujte sa alebo sa prihláste na fórum.

Jazyk: Český
Titulky: Ne
Žánr: Akční / Krimi / Drama
Země: Německo
Rok vydání: 1996 - 2013

Kvalita:

Format : AVI
Format/Info : Audio Video Interleave
File size : 357 MiB
Duration : 46 min 38 s
Overall bit rate mode : Variable
Overall bit rate : 1 070 kb/s
Writing application : VirtualDubMod 1.5.10.2 (build 2540/release)
Writing library : VirtualDubMod build 2540/release

Video
ID : 0
Format : MPEG-4 Visual
Codec ID : XVID
Codec ID/Hint : XviD
Duration : 46 min 38 s
Bit rate : 932 kb/s
Width : 512 pixels
Height : 384 pixels
Display aspect ratio : 4:3
Frame rate : 25.000 FPS
Color space : YUV
Chroma subsampling : 4:2:0
Compression mode : Lossy
Bits/(Pixel*Frame) : 0.190
Stream size : 311 MiB (87%)

Audio
ID : 1
Format : MPEG Audio
Format version : Version 1
Format profile : Layer 3
Mode : Joint stereo
Mode extension : MS Stereo
Codec ID : 55
Codec ID/Hint : MP3
Duration : 46 min 38 s
Bit rate mode : Variable
Bit rate : 128 kb/s
Channel(s) : 2 channels
Sampling rate : 48.0 kHz
Compression mode : Lossy
Stream size : 42.0 MiB (12%)
Alignment : Aligned on interleaves
Interleave, duration : 24 ms (0.60 video frame)
Interleave, preload duration : 515 ms
Writing library : LAME3.90.
Encoding settings : -m j -V 4 -q 2 -lowpass 17.6 --abr 128

Obsah:
Ich revírom je diaľnica, ich tempo vražedné, ich súpermi sú zlodeji áut, vrahovia, vydierači...
Hlavnými hrdinami azda najúspešnejšieho nemeckého akčného krimiseriálu vôbec, sú dvaja skvelo zohratí policajní dôstojníci fiktívneho kriminálneho oddelenia diaľničnej polície. V úplne prvých častiach seriálu tento tím tvorili komisári Frank Stolte (Johannes Brandrup) a Ingo Fischer (Rainer Strecker), no už v tretej epizóde vstúpil do deja dnes už služobne najstarší - a zjavne i najvytrvalejší a najodolnejší - komisár Semir Gerkhan (Erdogan Atalay) a nahradil Inga, ktorého zastrelili v akcii. O ďalších sedem epizód nahradil jeho partnera Franka, v podstate bez vysvetlenia, drsný komisár André Fux (Mark Keller), ktorý tragicky zahynul na konci tretej série pri nasadení na Malorke, keď sa po zásahu harpúnou zrútil do Stredozemného mora. jeho telo sa však nikdy nenašlo.

Od pilotného filmu k štvrtej sérii sa novým Semirovým partnerom stal komisár Tom Kranich (René Steinke), s ktorým – s menšou prestávkou – vytvoril nerozlučnú dvojicu viac ako sedem rokov! Na začiatku siedmej série dostal Semir nového partnera, pretože Tom sa po tragickej smrti svojej tehotnej priateľky pri výbuchu bomby, ktorú im do auta nastražil drogový díler a ktorá vlastne mala zabiť jeho, psychicky zrútil a od svojho náročného zamestnania si potreboval oddýchnuť, na neurčito... Jeho nástupcom sa stal mladý dynamický komisár Jan Richter (Christian Oliver), ktorý sa k diaľničnej polícii nechal preveliť z oddelenia krádeží. Na konci ôsmej série sa Jan z deja vyparil, vysvetlenie jeho zmiznutia i tentoraz absentovalo... Na začiatku deviatej série však Semir vyhľadal Toma a požiadal ho o pomoc pri vyšetrovaní aktuálneho prípadu – bol totiž jediný, kto poznal tvár bombového atentátnika, ktorého považovali za mŕtveho a ktorého dovtedy nik nedokázal spoľahlivo identifikovať. A hoci Tom pôvodne plánoval po uzavretí tohto prípadu svoju prácu definitívne zavesiť na klinec, rozhodol sa napokon pre pravý opak – vrátil sa k diaľničnej polícii a znovu sa stal Semirovým partnerom. Toto rozhodnutie sa však v konečnom dôsledku pre oboch ukázalo ako tragické, ba priam osudové - na konci desiatej série totiž Toma zastrelili...

Od jedenástej série sa prázdne miesto po Semirovom boku snažil zaplniť skúsený komisár Chris Ritter (Gedeon Burkhard), pracujúci dlhé roky v utajení, ktorý však len po dvoch sériách tragicky zahynul pri pokuse o záchranu bývalej priateľky. Od trinástej série sa tak novým Semirovým partnerom stal mladý komisár Ben Jäger (Tom Beck)!

7.Séria - 13 častí
Download:

kód:
Len registrovaní užívatelia môžu pozerať odkazy!
Registrujte sa alebo sa prihláste na fórum.


Password:

No!!!

Zobrazit informace o autoroviOdeslat soukromou zprávu
CitovatNávrat nahoru
Europa2dj
Přispěvatel
 

 
Založen: 6.2.2011 
Příspěvky: 619 
 
PříspěvekPředmět:
Description:
ZaslalZaslal: 23 srpen 2017, 20:33

Kobra 11 / Alarm fur Cobra 11 - Die Autobahnpolizei (CZ) - 8. Séria


kód:
Len registrovaní užívatelia môžu pozerať odkazy!
Registrujte sa alebo sa prihláste na fórum.

Jazyk: Český
Titulky: Ne
Žánr: Akční / Krimi / Drama
Země: Německo
Rok vydání: 1996 - 2013

Kvalita:

Format : AVI
Format/Info : Audio Video Interleave
File size : 349 MiB
Duration : 45 min 29 s
Overall bit rate mode : Variable
Overall bit rate : 1 073 kb/s
Writing application : VirtualDubMod 1.5.10.2 (build 2540/release)
Writing library : VirtualDubMod build 2540/release

Video
ID : 0
Format : MPEG-4 Visual
Codec ID : XVID
Codec ID/Hint : XviD
Duration : 45 min 29 s
Bit rate : 933 kb/s
Width : 512 pixels
Height : 384 pixels
Display aspect ratio : 4:3
Frame rate : 25.000 FPS
Color space : YUV
Chroma subsampling : 4:2:0
Compression mode : Lossy
Bits/(Pixel*Frame) : 0.190
Stream size : 304 MiB (87%)

Audio
ID : 1
Format : MPEG Audio
Format version : Version 1
Format profile : Layer 3
Mode : Joint stereo
Mode extension : MS Stereo
Codec ID : 55
Codec ID/Hint : MP3
Duration : 45 min 29 s
Bit rate mode : Variable
Bit rate : 128 kb/s
Channel(s) : 2 channels
Sampling rate : 48.0 kHz
Compression mode : Lossy
Stream size : 41.3 MiB (12%)
Alignment : Aligned on interleaves
Interleave, duration : 24 ms (0.60 video frame)
Interleave, preload duration : 493 ms
Writing library : LAME3.90.
Encoding settings : -m j -V 4 -q 2 -lowpass 17.6 --abr 128

Obsah:
Ich revírom je diaľnica, ich tempo vražedné, ich súpermi sú zlodeji áut, vrahovia, vydierači...
Hlavnými hrdinami azda najúspešnejšieho nemeckého akčného krimiseriálu vôbec, sú dvaja skvelo zohratí policajní dôstojníci fiktívneho kriminálneho oddelenia diaľničnej polície. V úplne prvých častiach seriálu tento tím tvorili komisári Frank Stolte (Johannes Brandrup) a Ingo Fischer (Rainer Strecker), no už v tretej epizóde vstúpil do deja dnes už služobne najstarší - a zjavne i najvytrvalejší a najodolnejší - komisár Semir Gerkhan (Erdogan Atalay) a nahradil Inga, ktorého zastrelili v akcii. O ďalších sedem epizód nahradil jeho partnera Franka, v podstate bez vysvetlenia, drsný komisár André Fux (Mark Keller), ktorý tragicky zahynul na konci tretej série pri nasadení na Malorke, keď sa po zásahu harpúnou zrútil do Stredozemného mora. jeho telo sa však nikdy nenašlo.

Od pilotného filmu k štvrtej sérii sa novým Semirovým partnerom stal komisár Tom Kranich (René Steinke), s ktorým – s menšou prestávkou – vytvoril nerozlučnú dvojicu viac ako sedem rokov! Na začiatku siedmej série dostal Semir nového partnera, pretože Tom sa po tragickej smrti svojej tehotnej priateľky pri výbuchu bomby, ktorú im do auta nastražil drogový díler a ktorá vlastne mala zabiť jeho, psychicky zrútil a od svojho náročného zamestnania si potreboval oddýchnuť, na neurčito... Jeho nástupcom sa stal mladý dynamický komisár Jan Richter (Christian Oliver), ktorý sa k diaľničnej polícii nechal preveliť z oddelenia krádeží. Na konci ôsmej série sa Jan z deja vyparil, vysvetlenie jeho zmiznutia i tentoraz absentovalo... Na začiatku deviatej série však Semir vyhľadal Toma a požiadal ho o pomoc pri vyšetrovaní aktuálneho prípadu – bol totiž jediný, kto poznal tvár bombového atentátnika, ktorého považovali za mŕtveho a ktorého dovtedy nik nedokázal spoľahlivo identifikovať. A hoci Tom pôvodne plánoval po uzavretí tohto prípadu svoju prácu definitívne zavesiť na klinec, rozhodol sa napokon pre pravý opak – vrátil sa k diaľničnej polícii a znovu sa stal Semirovým partnerom. Toto rozhodnutie sa však v konečnom dôsledku pre oboch ukázalo ako tragické, ba priam osudové - na konci desiatej série totiž Toma zastrelili...

Od jedenástej série sa prázdne miesto po Semirovom boku snažil zaplniť skúsený komisár Chris Ritter (Gedeon Burkhard), pracujúci dlhé roky v utajení, ktorý však len po dvoch sériách tragicky zahynul pri pokuse o záchranu bývalej priateľky. Od trinástej série sa tak novým Semirovým partnerom stal mladý komisár Ben Jäger (Tom Beck)!

8.Séria - 15 častí
Download:

kód:
Len registrovaní užívatelia môžu pozerať odkazy!
Registrujte sa alebo sa prihláste na fórum.


Password:

No!!!

Zobrazit informace o autoroviOdeslat soukromou zprávu
CitovatNávrat nahoru
Europa2dj
Přispěvatel
 

 
Založen: 6.2.2011 
Příspěvky: 619 
 
PříspěvekPředmět:
Description:
ZaslalZaslal: 23 srpen 2017, 20:34

Kobra 11 / Alarm fur Cobra 11 - Die Autobahnpolizei (CZ) - 9. Séria


kód:
Len registrovaní užívatelia môžu pozerať odkazy!
Registrujte sa alebo sa prihláste na fórum.

Jazyk: Český
Titulky: Ne
Žánr: Akční / Krimi / Drama
Země: Německo
Rok vydání: 1996 - 2013

Kvalita:

Format : AVI
Format/Info : Audio Video Interleave
File size : 353 MiB
Duration : 46 min 11 s
Overall bit rate mode : Variable
Overall bit rate : 1 068 kb/s
Writing application : VirtualDubMod 1.5.10.2 (build 2540/release)
Writing library : VirtualDubMod build 2540/release

Video
ID : 0
Format : MPEG-4 Visual
Codec ID : XVID
Codec ID/Hint : XviD
Duration : 46 min 11 s
Bit rate : 929 kb/s
Width : 512 pixels
Height : 384 pixels
Display aspect ratio : 4:3
Frame rate : 25.000 FPS
Color space : YUV
Chroma subsampling : 4:2:0
Compression mode : Lossy
Bits/(Pixel*Frame) : 0.189
Stream size : 307 MiB (87%)

Audio
ID : 1
Format : MPEG Audio
Format version : Version 1
Format profile : Layer 3
Mode : Joint stereo
Mode extension : MS Stereo
Codec ID : 55
Codec ID/Hint : MP3
Duration : 46 min 11 s
Bit rate mode : Variable
Bit rate : 128 kb/s
Channel(s) : 2 channels
Sampling rate : 48.0 kHz
Compression mode : Lossy
Stream size : 41.7 MiB (12%)
Alignment : Aligned on interleaves
Interleave, duration : 24 ms (0.60 video frame)
Interleave, preload duration : 498 ms
Writing library : LAME3.90.
Encoding settings : -m j -V 4 -q 2 -lowpass 17.6 --abr 128

Obsah:
Ich revírom je diaľnica, ich tempo vražedné, ich súpermi sú zlodeji áut, vrahovia, vydierači...
Hlavnými hrdinami azda najúspešnejšieho nemeckého akčného krimiseriálu vôbec, sú dvaja skvelo zohratí policajní dôstojníci fiktívneho kriminálneho oddelenia diaľničnej polície. V úplne prvých častiach seriálu tento tím tvorili komisári Frank Stolte (Johannes Brandrup) a Ingo Fischer (Rainer Strecker), no už v tretej epizóde vstúpil do deja dnes už služobne najstarší - a zjavne i najvytrvalejší a najodolnejší - komisár Semir Gerkhan (Erdogan Atalay) a nahradil Inga, ktorého zastrelili v akcii. O ďalších sedem epizód nahradil jeho partnera Franka, v podstate bez vysvetlenia, drsný komisár André Fux (Mark Keller), ktorý tragicky zahynul na konci tretej série pri nasadení na Malorke, keď sa po zásahu harpúnou zrútil do Stredozemného mora. jeho telo sa však nikdy nenašlo.

Od pilotného filmu k štvrtej sérii sa novým Semirovým partnerom stal komisár Tom Kranich (René Steinke), s ktorým – s menšou prestávkou – vytvoril nerozlučnú dvojicu viac ako sedem rokov! Na začiatku siedmej série dostal Semir nového partnera, pretože Tom sa po tragickej smrti svojej tehotnej priateľky pri výbuchu bomby, ktorú im do auta nastražil drogový díler a ktorá vlastne mala zabiť jeho, psychicky zrútil a od svojho náročného zamestnania si potreboval oddýchnuť, na neurčito... Jeho nástupcom sa stal mladý dynamický komisár Jan Richter (Christian Oliver), ktorý sa k diaľničnej polícii nechal preveliť z oddelenia krádeží. Na konci ôsmej série sa Jan z deja vyparil, vysvetlenie jeho zmiznutia i tentoraz absentovalo... Na začiatku deviatej série však Semir vyhľadal Toma a požiadal ho o pomoc pri vyšetrovaní aktuálneho prípadu – bol totiž jediný, kto poznal tvár bombového atentátnika, ktorého považovali za mŕtveho a ktorého dovtedy nik nedokázal spoľahlivo identifikovať. A hoci Tom pôvodne plánoval po uzavretí tohto prípadu svoju prácu definitívne zavesiť na klinec, rozhodol sa napokon pre pravý opak – vrátil sa k diaľničnej polícii a znovu sa stal Semirovým partnerom. Toto rozhodnutie sa však v konečnom dôsledku pre oboch ukázalo ako tragické, ba priam osudové - na konci desiatej série totiž Toma zastrelili...

Od jedenástej série sa prázdne miesto po Semirovom boku snažil zaplniť skúsený komisár Chris Ritter (Gedeon Burkhard), pracujúci dlhé roky v utajení, ktorý však len po dvoch sériách tragicky zahynul pri pokuse o záchranu bývalej priateľky. Od trinástej série sa tak novým Semirovým partnerom stal mladý komisár Ben Jäger (Tom Beck)!

9.Séria - 16 častí
Download:

kód:
Len registrovaní užívatelia môžu pozerať odkazy!
Registrujte sa alebo sa prihláste na fórum.


Password:

No!!!

Zobrazit informace o autoroviOdeslat soukromou zprávu
CitovatNávrat nahoru
Europa2dj
Přispěvatel
 

 
Založen: 6.2.2011 
Příspěvky: 619 
 
PříspěvekPředmět:
Description:
ZaslalZaslal: 23 srpen 2017, 20:36

Kobra 11 / Alarm fur Cobra 11 - Die Autobahnpolizei (CZ) - 10. Séria


kód:
Len registrovaní užívatelia môžu pozerať odkazy!
Registrujte sa alebo sa prihláste na fórum.

Jazyk: Český
Titulky: Ne
Žánr: Akční / Krimi / Drama
Země: Německo
Rok vydání: 1996 - 2013

Kvalita:

Format : AVI
Format/Info : Audio Video Interleave
File size : 353 MiB
Duration : 46 min 6 s
Overall bit rate mode : Variable
Overall bit rate : 1 070 kb/s
Writing application : VirtualDubMod 1.5.10.2 (build 2540/release)
Writing library : VirtualDubMod build 2540/release

Video
ID : 0
Format : MPEG-4 Visual
Codec ID : XVID
Codec ID/Hint : XviD
Duration : 46 min 6 s
Bit rate : 930 kb/s
Width : 512 pixels
Height : 384 pixels
Display aspect ratio : 4:3
Frame rate : 25.000 FPS
Color space : YUV
Chroma subsampling : 4:2:0
Compression mode : Lossy
Bits/(Pixel*Frame) : 0.189
Stream size : 307 MiB (87%)

Audio
ID : 1
Format : MPEG Audio
Format version : Version 1
Format profile : Layer 3
Mode : Joint stereo
Mode extension : MS Stereo
Codec ID : 55
Codec ID/Hint : MP3
Duration : 46 min 6 s
Bit rate mode : Variable
Bit rate : 128 kb/s
Channel(s) : 2 channels
Sampling rate : 48.0 kHz
Compression mode : Lossy
Stream size : 41.9 MiB (12%)
Alignment : Aligned on interleaves
Interleave, duration : 24 ms (0.60 video frame)
Interleave, preload duration : 510 ms
Writing library : LAME3.90.
Encoding settings : -m j -V 4 -q 2 -lowpass 17.6 --abr 128

Obsah:
Ich revírom je diaľnica, ich tempo vražedné, ich súpermi sú zlodeji áut, vrahovia, vydierači...
Hlavnými hrdinami azda najúspešnejšieho nemeckého akčného krimiseriálu vôbec, sú dvaja skvelo zohratí policajní dôstojníci fiktívneho kriminálneho oddelenia diaľničnej polície. V úplne prvých častiach seriálu tento tím tvorili komisári Frank Stolte (Johannes Brandrup) a Ingo Fischer (Rainer Strecker), no už v tretej epizóde vstúpil do deja dnes už služobne najstarší - a zjavne i najvytrvalejší a najodolnejší - komisár Semir Gerkhan (Erdogan Atalay) a nahradil Inga, ktorého zastrelili v akcii. O ďalších sedem epizód nahradil jeho partnera Franka, v podstate bez vysvetlenia, drsný komisár André Fux (Mark Keller), ktorý tragicky zahynul na konci tretej série pri nasadení na Malorke, keď sa po zásahu harpúnou zrútil do Stredozemného mora. jeho telo sa však nikdy nenašlo.

Od pilotného filmu k štvrtej sérii sa novým Semirovým partnerom stal komisár Tom Kranich (René Steinke), s ktorým – s menšou prestávkou – vytvoril nerozlučnú dvojicu viac ako sedem rokov! Na začiatku siedmej série dostal Semir nového partnera, pretože Tom sa po tragickej smrti svojej tehotnej priateľky pri výbuchu bomby, ktorú im do auta nastražil drogový díler a ktorá vlastne mala zabiť jeho, psychicky zrútil a od svojho náročného zamestnania si potreboval oddýchnuť, na neurčito... Jeho nástupcom sa stal mladý dynamický komisár Jan Richter (Christian Oliver), ktorý sa k diaľničnej polícii nechal preveliť z oddelenia krádeží. Na konci ôsmej série sa Jan z deja vyparil, vysvetlenie jeho zmiznutia i tentoraz absentovalo... Na začiatku deviatej série však Semir vyhľadal Toma a požiadal ho o pomoc pri vyšetrovaní aktuálneho prípadu – bol totiž jediný, kto poznal tvár bombového atentátnika, ktorého považovali za mŕtveho a ktorého dovtedy nik nedokázal spoľahlivo identifikovať. A hoci Tom pôvodne plánoval po uzavretí tohto prípadu svoju prácu definitívne zavesiť na klinec, rozhodol sa napokon pre pravý opak – vrátil sa k diaľničnej polícii a znovu sa stal Semirovým partnerom. Toto rozhodnutie sa však v konečnom dôsledku pre oboch ukázalo ako tragické, ba priam osudové - na konci desiatej série totiž Toma zastrelili...

Od jedenástej série sa prázdne miesto po Semirovom boku snažil zaplniť skúsený komisár Chris Ritter (Gedeon Burkhard), pracujúci dlhé roky v utajení, ktorý však len po dvoch sériách tragicky zahynul pri pokuse o záchranu bývalej priateľky. Od trinástej série sa tak novým Semirovým partnerom stal mladý komisár Ben Jäger (Tom Beck)!

10.Séria - 16 častí
Download:

kód:
Len registrovaní užívatelia môžu pozerať odkazy!
Registrujte sa alebo sa prihláste na fórum.


Password:

No!!!

Zobrazit informace o autoroviOdeslat soukromou zprávu
CitovatNávrat nahoru
Europa2dj
Přispěvatel
 

 
Založen: 6.2.2011 
Příspěvky: 619 
 
PříspěvekPředmět:
Description:
ZaslalZaslal: 23 srpen 2017, 20:37

Kobra 11 / Alarm fur Cobra 11 - Die Autobahnpolizei (CZ) - 11. Séria


kód:
Len registrovaní užívatelia môžu pozerať odkazy!
Registrujte sa alebo sa prihláste na fórum.

Jazyk: Český
Titulky: Ne
Žánr: Akční / Krimi / Drama
Země: Německo
Rok vydání: 1996 - 2013

Kvalita:

Format : AVI
Format/Info : Audio Video Interleave
File size : 455 MiB
Duration : 44 min 40 s
Overall bit rate : 1 423 kb/s
Writing application : MEncoder dev-CVS-060101-18:59-4.0.2
Writing library : MPlayer

Video
ID : 0
Format : MPEG-4 Visual
Format profile : Simple@L1
Format settings, BVOP : No
Format settings, QPel : No
Format settings, GMC : No warppoints
Format settings, Matrix : Default (H.263)
Codec ID : DIVX
Codec ID/Info : Project Mayo
Codec ID/Hint : DivX 4
Duration : 44 min 40 s
Bit rate : 1 285 kb/s
Width : 544 pixels
Height : 400 pixels
Display aspect ratio : 4:3
Frame rate : 25.000 FPS
Color space : YUV
Chroma subsampling : 4:2:0
Bit depth : 8 bits
Scan type : Progressive
Compression mode : Lossy
Bits/(Pixel*Frame) : 0.236
Stream size : 410 MiB (90%)
Writing library : Lavc51.0.0

Audio
ID : 1
Format : AC-3
Format/Info : Audio Coding 3
Mode extension : CM (complete main)
Format settings, Endianness : Big
Codec ID : 2000
Duration : 44 min 40 s
Bit rate mode : Constant
Bit rate : 128 kb/s
Channel(s) : 2 channels
Channel positions : Front: L R
Sampling rate : 48.0 kHz
Frame rate : 31.250 FPS (1536 spf)
Bit depth : 16 bits
Compression mode : Lossy
Stream size : 40.9 MiB (9%)
Alignment : Aligned on interleaves
Interleave, duration : 32 ms (0.80 video frame)
Interleave, preload duration : 512 ms

Obsah:
Ich revírom je diaľnica, ich tempo vražedné, ich súpermi sú zlodeji áut, vrahovia, vydierači...
Hlavnými hrdinami azda najúspešnejšieho nemeckého akčného krimiseriálu vôbec, sú dvaja skvelo zohratí policajní dôstojníci fiktívneho kriminálneho oddelenia diaľničnej polície. V úplne prvých častiach seriálu tento tím tvorili komisári Frank Stolte (Johannes Brandrup) a Ingo Fischer (Rainer Strecker), no už v tretej epizóde vstúpil do deja dnes už služobne najstarší - a zjavne i najvytrvalejší a najodolnejší - komisár Semir Gerkhan (Erdogan Atalay) a nahradil Inga, ktorého zastrelili v akcii. O ďalších sedem epizód nahradil jeho partnera Franka, v podstate bez vysvetlenia, drsný komisár André Fux (Mark Keller), ktorý tragicky zahynul na konci tretej série pri nasadení na Malorke, keď sa po zásahu harpúnou zrútil do Stredozemného mora. jeho telo sa však nikdy nenašlo.

Od pilotného filmu k štvrtej sérii sa novým Semirovým partnerom stal komisár Tom Kranich (René Steinke), s ktorým – s menšou prestávkou – vytvoril nerozlučnú dvojicu viac ako sedem rokov! Na začiatku siedmej série dostal Semir nového partnera, pretože Tom sa po tragickej smrti svojej tehotnej priateľky pri výbuchu bomby, ktorú im do auta nastražil drogový díler a ktorá vlastne mala zabiť jeho, psychicky zrútil a od svojho náročného zamestnania si potreboval oddýchnuť, na neurčito... Jeho nástupcom sa stal mladý dynamický komisár Jan Richter (Christian Oliver), ktorý sa k diaľničnej polícii nechal preveliť z oddelenia krádeží. Na konci ôsmej série sa Jan z deja vyparil, vysvetlenie jeho zmiznutia i tentoraz absentovalo... Na začiatku deviatej série však Semir vyhľadal Toma a požiadal ho o pomoc pri vyšetrovaní aktuálneho prípadu – bol totiž jediný, kto poznal tvár bombového atentátnika, ktorého považovali za mŕtveho a ktorého dovtedy nik nedokázal spoľahlivo identifikovať. A hoci Tom pôvodne plánoval po uzavretí tohto prípadu svoju prácu definitívne zavesiť na klinec, rozhodol sa napokon pre pravý opak – vrátil sa k diaľničnej polícii a znovu sa stal Semirovým partnerom. Toto rozhodnutie sa však v konečnom dôsledku pre oboch ukázalo ako tragické, ba priam osudové - na konci desiatej série totiž Toma zastrelili...

Od jedenástej série sa prázdne miesto po Semirovom boku snažil zaplniť skúsený komisár Chris Ritter (Gedeon Burkhard), pracujúci dlhé roky v utajení, ktorý však len po dvoch sériách tragicky zahynul pri pokuse o záchranu bývalej priateľky. Od trinástej série sa tak novým Semirovým partnerom stal mladý komisár Ben Jäger (Tom Beck)!

11.Séria - 11 častí
Download:

kód:
Len registrovaní užívatelia môžu pozerať odkazy!
Registrujte sa alebo sa prihláste na fórum.


Password:

No!!!

Zobrazit informace o autoroviOdeslat soukromou zprávu
CitovatNávrat nahoru
Europa2dj
Přispěvatel
 

 
Založen: 6.2.2011 
Příspěvky: 619 
 
PříspěvekPředmět:
Description:
ZaslalZaslal: 23 srpen 2017, 20:43

Kobra 11 / Alarm fur Cobra 11 - Die Autobahnpolizei (CZ) - 12. Séria


kód:
Len registrovaní užívatelia môžu pozerať odkazy!
Registrujte sa alebo sa prihláste na fórum.

Jazyk: Český
Titulky: Ne
Žánr: Akční / Krimi / Drama
Země: Německo
Rok vydání: 1996 - 2013

Kvalita:

Format : AVI
Format/Info : Audio Video Interleave
File size : 1 000 MiB
Duration : 1 h 30 min
Overall bit rate : 1 540 kb/s
Writing application : MEncoder dev-CVS-060101-18:59-4.0.2
Writing library : MPlayer

Video
ID : 0
Format : MPEG-4 Visual
Format profile : Simple@L1
Format settings, BVOP : No
Format settings, QPel : No
Format settings, GMC : No warppoints
Format settings, Matrix : Default (H.263)
Codec ID : DIVX
Codec ID/Info : Project Mayo
Codec ID/Hint : DivX 4
Duration : 1 h 30 min
Bit rate : 1 401 kb/s
Width : 544 pixels
Height : 304 pixels
Display aspect ratio : 16:9
Frame rate : 25.000 FPS
Color space : YUV
Chroma subsampling : 4:2:0
Bit depth : 8 bits
Scan type : Progressive
Compression mode : Lossy
Bits/(Pixel*Frame) : 0.339
Stream size : 910 MiB (91%)
Writing library : Lavc51.0.0

Audio
ID : 1
Format : AC-3
Format/Info : Audio Coding 3
Mode extension : CM (complete main)
Format settings, Endianness : Big
Codec ID : 2000
Duration : 1 h 30 min
Bit rate mode : Constant
Bit rate : 128 kb/s
Channel(s) : 2 channels
Channel positions : Front: L R
Sampling rate : 48.0 kHz
Frame rate : 31.250 FPS (1536 spf)
Bit depth : 16 bits
Compression mode : Lossy
Stream size : 83.1 MiB (8%)
Alignment : Aligned on interleaves
Interleave, duration : 32 ms (0.80 video frame)
Interleave, preload duration : 512 ms

Obsah:
Ich revírom je diaľnica, ich tempo vražedné, ich súpermi sú zlodeji áut, vrahovia, vydierači...
Hlavnými hrdinami azda najúspešnejšieho nemeckého akčného krimiseriálu vôbec, sú dvaja skvelo zohratí policajní dôstojníci fiktívneho kriminálneho oddelenia diaľničnej polície. V úplne prvých častiach seriálu tento tím tvorili komisári Frank Stolte (Johannes Brandrup) a Ingo Fischer (Rainer Strecker), no už v tretej epizóde vstúpil do deja dnes už služobne najstarší - a zjavne i najvytrvalejší a najodolnejší - komisár Semir Gerkhan (Erdogan Atalay) a nahradil Inga, ktorého zastrelili v akcii. O ďalších sedem epizód nahradil jeho partnera Franka, v podstate bez vysvetlenia, drsný komisár André Fux (Mark Keller), ktorý tragicky zahynul na konci tretej série pri nasadení na Malorke, keď sa po zásahu harpúnou zrútil do Stredozemného mora. jeho telo sa však nikdy nenašlo.

Od pilotného filmu k štvrtej sérii sa novým Semirovým partnerom stal komisár Tom Kranich (René Steinke), s ktorým – s menšou prestávkou – vytvoril nerozlučnú dvojicu viac ako sedem rokov! Na začiatku siedmej série dostal Semir nového partnera, pretože Tom sa po tragickej smrti svojej tehotnej priateľky pri výbuchu bomby, ktorú im do auta nastražil drogový díler a ktorá vlastne mala zabiť jeho, psychicky zrútil a od svojho náročného zamestnania si potreboval oddýchnuť, na neurčito... Jeho nástupcom sa stal mladý dynamický komisár Jan Richter (Christian Oliver), ktorý sa k diaľničnej polícii nechal preveliť z oddelenia krádeží. Na konci ôsmej série sa Jan z deja vyparil, vysvetlenie jeho zmiznutia i tentoraz absentovalo... Na začiatku deviatej série však Semir vyhľadal Toma a požiadal ho o pomoc pri vyšetrovaní aktuálneho prípadu – bol totiž jediný, kto poznal tvár bombového atentátnika, ktorého považovali za mŕtveho a ktorého dovtedy nik nedokázal spoľahlivo identifikovať. A hoci Tom pôvodne plánoval po uzavretí tohto prípadu svoju prácu definitívne zavesiť na klinec, rozhodol sa napokon pre pravý opak – vrátil sa k diaľničnej polícii a znovu sa stal Semirovým partnerom. Toto rozhodnutie sa však v konečnom dôsledku pre oboch ukázalo ako tragické, ba priam osudové - na konci desiatej série totiž Toma zastrelili...

Od jedenástej série sa prázdne miesto po Semirovom boku snažil zaplniť skúsený komisár Chris Ritter (Gedeon Burkhard), pracujúci dlhé roky v utajení, ktorý však len po dvoch sériách tragicky zahynul pri pokuse o záchranu bývalej priateľky. Od trinástej série sa tak novým Semirovým partnerom stal mladý komisár Ben Jäger (Tom Beck)!

12.Séria - 11 častí
Download:

kód:
Len registrovaní užívatelia môžu pozerať odkazy!
Registrujte sa alebo sa prihláste na fórum.


Password:

No!!!

Zobrazit informace o autoroviOdeslat soukromou zprávu
CitovatNávrat nahoru
Europa2dj
Přispěvatel
 

 
Založen: 6.2.2011 
Příspěvky: 619 
 
PříspěvekPředmět:
Description:
ZaslalZaslal: 23 srpen 2017, 21:17

Kobra 11 / Alarm fur Cobra 11 - Die Autobahnpolizei (CZ) - 13. Séria


kód:
Len registrovaní užívatelia môžu pozerať odkazy!
Registrujte sa alebo sa prihláste na fórum.

Jazyk: Český
Titulky: Ne
Žánr: Akční / Krimi / Drama
Země: Německo
Rok vydání: 1996 - 2013

Kvalita:

Format : AVI
Format/Info : Audio Video Interleave
File size : 463 MiB
Duration : 41 min 9 s
Overall bit rate : 1 571 kb/s
Writing application : VirtualDubMod 1.5.10.2 (build 2540/release)
Writing library : VirtualDub build 24415/release

Video
ID : 0
Format : MPEG-4 Visual
Format profile : Advanced Simple@L5
Format settings, BVOP : 2
Format settings, QPel : No
Format settings, GMC : No warppoints
Format settings, Matrix : Default (MPEG)
Codec ID : XVID
Codec ID/Hint : XviD
Duration : 41 min 9 s
Bit rate : 1 434 kb/s
Width : 640 pixels
Height : 352 pixels
Display aspect ratio : 16:9
Frame rate : 25.000 FPS
Color space : YUV
Chroma subsampling : 4:2:0
Bit depth : 8 bits
Scan type : Progressive
Compression mode : Lossy
Bits/(Pixel*Frame) : 0.255
Stream size : 422 MiB (91%)
Writing library : XviD 1.0.3 (UTC 2004-12-20)

Audio
ID : 1
Format : MPEG Audio
Format version : Version 1
Format profile : Layer 3
Mode : Joint stereo
Mode extension : MS Stereo
Codec ID : 55
Codec ID/Hint : MP3
Duration : 41 min 9 s
Bit rate mode : Constant
Bit rate : 128 kb/s
Channel(s) : 2 channels
Sampling rate : 48.0 kHz
Compression mode : Lossy
Stream size : 37.7 MiB (8%)
Alignment : Aligned on interleaves
Interleave, duration : 40 ms (1.00 video frame)
Interleave, preload duration : 504 ms

Obsah:
Ich revírom je diaľnica, ich tempo vražedné, ich súpermi sú zlodeji áut, vrahovia, vydierači...
Hlavnými hrdinami azda najúspešnejšieho nemeckého akčného krimiseriálu vôbec, sú dvaja skvelo zohratí policajní dôstojníci fiktívneho kriminálneho oddelenia diaľničnej polície. V úplne prvých častiach seriálu tento tím tvorili komisári Frank Stolte (Johannes Brandrup) a Ingo Fischer (Rainer Strecker), no už v tretej epizóde vstúpil do deja dnes už služobne najstarší - a zjavne i najvytrvalejší a najodolnejší - komisár Semir Gerkhan (Erdogan Atalay) a nahradil Inga, ktorého zastrelili v akcii. O ďalších sedem epizód nahradil jeho partnera Franka, v podstate bez vysvetlenia, drsný komisár André Fux (Mark Keller), ktorý tragicky zahynul na konci tretej série pri nasadení na Malorke, keď sa po zásahu harpúnou zrútil do Stredozemného mora. jeho telo sa však nikdy nenašlo.

Od pilotného filmu k štvrtej sérii sa novým Semirovým partnerom stal komisár Tom Kranich (René Steinke), s ktorým – s menšou prestávkou – vytvoril nerozlučnú dvojicu viac ako sedem rokov! Na začiatku siedmej série dostal Semir nového partnera, pretože Tom sa po tragickej smrti svojej tehotnej priateľky pri výbuchu bomby, ktorú im do auta nastražil drogový díler a ktorá vlastne mala zabiť jeho, psychicky zrútil a od svojho náročného zamestnania si potreboval oddýchnuť, na neurčito... Jeho nástupcom sa stal mladý dynamický komisár Jan Richter (Christian Oliver), ktorý sa k diaľničnej polícii nechal preveliť z oddelenia krádeží. Na konci ôsmej série sa Jan z deja vyparil, vysvetlenie jeho zmiznutia i tentoraz absentovalo... Na začiatku deviatej série však Semir vyhľadal Toma a požiadal ho o pomoc pri vyšetrovaní aktuálneho prípadu – bol totiž jediný, kto poznal tvár bombového atentátnika, ktorého považovali za mŕtveho a ktorého dovtedy nik nedokázal spoľahlivo identifikovať. A hoci Tom pôvodne plánoval po uzavretí tohto prípadu svoju prácu definitívne zavesiť na klinec, rozhodol sa napokon pre pravý opak – vrátil sa k diaľničnej polícii a znovu sa stal Semirovým partnerom. Toto rozhodnutie sa však v konečnom dôsledku pre oboch ukázalo ako tragické, ba priam osudové - na konci desiatej série totiž Toma zastrelili...

Od jedenástej série sa prázdne miesto po Semirovom boku snažil zaplniť skúsený komisár Chris Ritter (Gedeon Burkhard), pracujúci dlhé roky v utajení, ktorý však len po dvoch sériách tragicky zahynul pri pokuse o záchranu bývalej priateľky. Od trinástej série sa tak novým Semirovým partnerom stal mladý komisár Ben Jäger (Tom Beck)!

13.Séria - 15 častí
Download:

kód:
Len registrovaní užívatelia môžu pozerať odkazy!
Registrujte sa alebo sa prihláste na fórum.


Password:

No!!!

Zobrazit informace o autoroviOdeslat soukromou zprávu
CitovatNávrat nahoru
Europa2dj
Přispěvatel
 

 
Založen: 6.2.2011 
Příspěvky: 619 
 
PříspěvekPředmět:
Description:
ZaslalZaslal: 23 srpen 2017, 21:17

Kobra 11 / Alarm fur Cobra 11 - Die Autobahnpolizei (CZ) - 14. Séria


kód:
Len registrovaní užívatelia môžu pozerať odkazy!
Registrujte sa alebo sa prihláste na fórum.

Jazyk: Český
Titulky: Ne
Žánr: Akční / Krimi / Drama
Země: Německo
Rok vydání: 1996 - 2013

Kvalita:

Format : AVI
Format/Info : Audio Video Interleave
File size : 874 MiB
Duration : 1 h 29 min
Overall bit rate : 1 371 kb/s

Video
ID : 0
Format : MPEG-4 Visual
Format settings, BVOP : 1
Format settings, QPel : No
Format settings, GMC : No warppoints
Format settings, Matrix : Default (H.263)
Muxing mode : Packed bitstream
Codec ID : DX50
Codec ID/Hint : DivX 5
Duration : 1 h 29 min
Bit rate : 1 101 kb/s
Nominal bit rate : 4 854 kb/s
Width : 640 pixels
Height : 352 pixels
Display aspect ratio : 16:9
Frame rate : 25.000 FPS
Color space : YUV
Chroma subsampling : 4:2:0
Bit depth : 8 bits
Scan type : Progressive
Compression mode : Lossy
Bits/(Pixel*Frame) : 0.195
Stream size : 702 MiB (80%)
Writing library : DivX 6.8.5 (UTC 2009-08-20)

Audio
ID : 1
Format : AC-3
Format/Info : Audio Coding 3
Mode extension : CM (complete main)
Format settings, Endianness : Big
Codec ID : 2000
Duration : 1 h 29 min
Bit rate mode : Constant
Bit rate : 192 kb/s
Channel(s) : 2 channels
Channel positions : Front: L R
Sampling rate : 44.1 kHz
Frame rate : 28.711 FPS (1536 spf)
Bit depth : 16 bits
Compression mode : Lossy
Stream size : 122 MiB (14%)
Alignment : Aligned on interleaves
Interleave, duration : 1010 ms (25.25 video frames)

Obsah:
Ich revírom je diaľnica, ich tempo vražedné, ich súpermi sú zlodeji áut, vrahovia, vydierači...
Hlavnými hrdinami azda najúspešnejšieho nemeckého akčného krimiseriálu vôbec, sú dvaja skvelo zohratí policajní dôstojníci fiktívneho kriminálneho oddelenia diaľničnej polície. V úplne prvých častiach seriálu tento tím tvorili komisári Frank Stolte (Johannes Brandrup) a Ingo Fischer (Rainer Strecker), no už v tretej epizóde vstúpil do deja dnes už služobne najstarší - a zjavne i najvytrvalejší a najodolnejší - komisár Semir Gerkhan (Erdogan Atalay) a nahradil Inga, ktorého zastrelili v akcii. O ďalších sedem epizód nahradil jeho partnera Franka, v podstate bez vysvetlenia, drsný komisár André Fux (Mark Keller), ktorý tragicky zahynul na konci tretej série pri nasadení na Malorke, keď sa po zásahu harpúnou zrútil do Stredozemného mora. jeho telo sa však nikdy nenašlo.

Od pilotného filmu k štvrtej sérii sa novým Semirovým partnerom stal komisár Tom Kranich (René Steinke), s ktorým – s menšou prestávkou – vytvoril nerozlučnú dvojicu viac ako sedem rokov! Na začiatku siedmej série dostal Semir nového partnera, pretože Tom sa po tragickej smrti svojej tehotnej priateľky pri výbuchu bomby, ktorú im do auta nastražil drogový díler a ktorá vlastne mala zabiť jeho, psychicky zrútil a od svojho náročného zamestnania si potreboval oddýchnuť, na neurčito... Jeho nástupcom sa stal mladý dynamický komisár Jan Richter (Christian Oliver), ktorý sa k diaľničnej polícii nechal preveliť z oddelenia krádeží. Na konci ôsmej série sa Jan z deja vyparil, vysvetlenie jeho zmiznutia i tentoraz absentovalo... Na začiatku deviatej série však Semir vyhľadal Toma a požiadal ho o pomoc pri vyšetrovaní aktuálneho prípadu – bol totiž jediný, kto poznal tvár bombového atentátnika, ktorého považovali za mŕtveho a ktorého dovtedy nik nedokázal spoľahlivo identifikovať. A hoci Tom pôvodne plánoval po uzavretí tohto prípadu svoju prácu definitívne zavesiť na klinec, rozhodol sa napokon pre pravý opak – vrátil sa k diaľničnej polícii a znovu sa stal Semirovým partnerom. Toto rozhodnutie sa však v konečnom dôsledku pre oboch ukázalo ako tragické, ba priam osudové - na konci desiatej série totiž Toma zastrelili...

Od jedenástej série sa prázdne miesto po Semirovom boku snažil zaplniť skúsený komisár Chris Ritter (Gedeon Burkhard), pracujúci dlhé roky v utajení, ktorý však len po dvoch sériách tragicky zahynul pri pokuse o záchranu bývalej priateľky. Od trinástej série sa tak novým Semirovým partnerom stal mladý komisár Ben Jäger (Tom Beck)!

14.Séria - 15 častí
Download:

kód:
Len registrovaní užívatelia môžu pozerať odkazy!
Registrujte sa alebo sa prihláste na fórum.


Password:

No!!!

Zobrazit informace o autoroviOdeslat soukromou zprávu
CitovatNávrat nahoru
Europa2dj
Přispěvatel
 

 
Založen: 6.2.2011 
Příspěvky: 619 
 
PříspěvekPředmět:
Description:
ZaslalZaslal: 23 srpen 2017, 21:18

Kobra 11 / Alarm fur Cobra 11 - Die Autobahnpolizei (CZ) - 15. Séria


kód:
Len registrovaní užívatelia môžu pozerať odkazy!
Registrujte sa alebo sa prihláste na fórum.

Jazyk: Český
Titulky: Ne
Žánr: Akční / Krimi / Drama
Země: Německo
Rok vydání: 1996 - 2013

Kvalita:

Format : AVI
Format/Info : Audio Video Interleave
File size : 699 MiB
Duration : 1 h 29 min
Overall bit rate mode : Variable
Overall bit rate : 1 087 kb/s
Writing application : Lavf52.64.2

Video
ID : 0
Format : MPEG-4 Visual
Format profile : Advanced Simple@L5
Format settings, BVOP : 1
Format settings, QPel : No
Format settings, GMC : No warppoints
Format settings, Matrix : Default (H.263)
Codec ID : XVID
Codec ID/Hint : XviD
Duration : 1 h 29 min
Bit rate : 955 kb/s
Width : 640 pixels
Height : 352 pixels
Display aspect ratio : 16:9
Frame rate : 25.000 FPS
Color space : YUV
Chroma subsampling : 4:2:0
Bit depth : 8 bits
Scan type : Progressive
Compression mode : Lossy
Bits/(Pixel*Frame) : 0.170
Stream size : 614 MiB (88%)
Writing library : XviD 1.2.1 (UTC 2008-12-04)

Audio
ID : 1
Format : MPEG Audio
Format version : Version 1
Format profile : Layer 3
Mode : Joint stereo
Mode extension : MS Stereo
Codec ID : 55
Codec ID/Hint : MP3
Duration : 1 h 29 min
Bit rate mode : Variable
Bit rate : 160 kb/s
Channel(s) : 2 channels
Sampling rate : 48.0 kHz
Compression mode : Lossy
Stream size : 76.7 MiB (11%)
Alignment : Aligned on interleaves
Interleave, duration : 24 ms (0.60 video frame)

Obsah:
Ich revírom je diaľnica, ich tempo vražedné, ich súpermi sú zlodeji áut, vrahovia, vydierači...
Hlavnými hrdinami azda najúspešnejšieho nemeckého akčného krimiseriálu vôbec, sú dvaja skvelo zohratí policajní dôstojníci fiktívneho kriminálneho oddelenia diaľničnej polície. V úplne prvých častiach seriálu tento tím tvorili komisári Frank Stolte (Johannes Brandrup) a Ingo Fischer (Rainer Strecker), no už v tretej epizóde vstúpil do deja dnes už služobne najstarší - a zjavne i najvytrvalejší a najodolnejší - komisár Semir Gerkhan (Erdogan Atalay) a nahradil Inga, ktorého zastrelili v akcii. O ďalších sedem epizód nahradil jeho partnera Franka, v podstate bez vysvetlenia, drsný komisár André Fux (Mark Keller), ktorý tragicky zahynul na konci tretej série pri nasadení na Malorke, keď sa po zásahu harpúnou zrútil do Stredozemného mora. jeho telo sa však nikdy nenašlo.

Od pilotného filmu k štvrtej sérii sa novým Semirovým partnerom stal komisár Tom Kranich (René Steinke), s ktorým – s menšou prestávkou – vytvoril nerozlučnú dvojicu viac ako sedem rokov! Na začiatku siedmej série dostal Semir nového partnera, pretože Tom sa po tragickej smrti svojej tehotnej priateľky pri výbuchu bomby, ktorú im do auta nastražil drogový díler a ktorá vlastne mala zabiť jeho, psychicky zrútil a od svojho náročného zamestnania si potreboval oddýchnuť, na neurčito... Jeho nástupcom sa stal mladý dynamický komisár Jan Richter (Christian Oliver), ktorý sa k diaľničnej polícii nechal preveliť z oddelenia krádeží. Na konci ôsmej série sa Jan z deja vyparil, vysvetlenie jeho zmiznutia i tentoraz absentovalo... Na začiatku deviatej série však Semir vyhľadal Toma a požiadal ho o pomoc pri vyšetrovaní aktuálneho prípadu – bol totiž jediný, kto poznal tvár bombového atentátnika, ktorého považovali za mŕtveho a ktorého dovtedy nik nedokázal spoľahlivo identifikovať. A hoci Tom pôvodne plánoval po uzavretí tohto prípadu svoju prácu definitívne zavesiť na klinec, rozhodol sa napokon pre pravý opak – vrátil sa k diaľničnej polícii a znovu sa stal Semirovým partnerom. Toto rozhodnutie sa však v konečnom dôsledku pre oboch ukázalo ako tragické, ba priam osudové - na konci desiatej série totiž Toma zastrelili...

Od jedenástej série sa prázdne miesto po Semirovom boku snažil zaplniť skúsený komisár Chris Ritter (Gedeon Burkhard), pracujúci dlhé roky v utajení, ktorý však len po dvoch sériách tragicky zahynul pri pokuse o záchranu bývalej priateľky. Od trinástej série sa tak novým Semirovým partnerom stal mladý komisár Ben Jäger (Tom Beck)!

15.Séria - 14 častí
Download:

kód:
Len registrovaní užívatelia môžu pozerať odkazy!
Registrujte sa alebo sa prihláste na fórum.


Password:

No!!!

Zobrazit informace o autoroviOdeslat soukromou zprávu
CitovatNávrat nahoru
Europa2dj
Přispěvatel
 

 
Založen: 6.2.2011 
Příspěvky: 619 
 
PříspěvekPředmět:
Description:
ZaslalZaslal: 23 srpen 2017, 21:19

Kobra 11 / Alarm fur Cobra 11 - Die Autobahnpolizei (CZ) - 16. Séria


kód:
Len registrovaní užívatelia môžu pozerať odkazy!
Registrujte sa alebo sa prihláste na fórum.

Jazyk: Český
Titulky: Ne
Žánr: Akční / Krimi / Drama
Země: Německo
Rok vydání: 1996 - 2013

Kvalita:

Format : AVI
Format/Info : Audio Video Interleave
File size : 454 MiB
Duration : 50 min 11 s
Overall bit rate : 1 264 kb/s
Writing application : VirtualDubMod 1.5.10.1 (build 2366/release)
Writing library : VirtualDubMod build 2366/release

Video
ID : 0
Format : MPEG-4 Visual
Format profile : Advanced Simple@L5
Format settings, BVOP : 2
Format settings, QPel : No
Format settings, GMC : No warppoints
Format settings, Matrix : Default (H.263)
Muxing mode : Packed bitstream
Codec ID : XVID
Codec ID/Hint : XviD
Duration : 50 min 11 s
Bit rate : 1 198 kb/s
Width : 640 pixels
Height : 360 pixels
Display aspect ratio : 16:9
Frame rate : 25.000 FPS
Color space : YUV
Chroma subsampling : 4:2:0
Bit depth : 8 bits
Scan type : Progressive
Compression mode : Lossy
Bits/(Pixel*Frame) : 0.208
Stream size : 430 MiB (95%)
Writing library : XviD 1.1.0 (UTC 2005-11-22)

Audio
ID : 1
Format : MPEG Audio
Format version : Version 2
Format profile : Layer 3
Mode : Joint stereo
Mode extension : Intensity Stereo + MS Stereo
Codec ID : 55
Codec ID/Hint : MP3
Duration : 50 min 11 s
Bit rate mode : Constant
Bit rate : 56.0 kb/s
Channel(s) : 2 channels
Sampling rate : 24.0 kHz
Compression mode : Lossy
Stream size : 20.1 MiB (4%)
Alignment : Split accross interleaves
Interleave, duration : 40 ms (1.00 video frame)
Interleave, preload duration : 500 ms

Obsah:
Ich revírom je diaľnica, ich tempo vražedné, ich súpermi sú zlodeji áut, vrahovia, vydierači...
Hlavnými hrdinami azda najúspešnejšieho nemeckého akčného krimiseriálu vôbec, sú dvaja skvelo zohratí policajní dôstojníci fiktívneho kriminálneho oddelenia diaľničnej polície. V úplne prvých častiach seriálu tento tím tvorili komisári Frank Stolte (Johannes Brandrup) a Ingo Fischer (Rainer Strecker), no už v tretej epizóde vstúpil do deja dnes už služobne najstarší - a zjavne i najvytrvalejší a najodolnejší - komisár Semir Gerkhan (Erdogan Atalay) a nahradil Inga, ktorého zastrelili v akcii. O ďalších sedem epizód nahradil jeho partnera Franka, v podstate bez vysvetlenia, drsný komisár André Fux (Mark Keller), ktorý tragicky zahynul na konci tretej série pri nasadení na Malorke, keď sa po zásahu harpúnou zrútil do Stredozemného mora. jeho telo sa však nikdy nenašlo.

Od pilotného filmu k štvrtej sérii sa novým Semirovým partnerom stal komisár Tom Kranich (René Steinke), s ktorým – s menšou prestávkou – vytvoril nerozlučnú dvojicu viac ako sedem rokov! Na začiatku siedmej série dostal Semir nového partnera, pretože Tom sa po tragickej smrti svojej tehotnej priateľky pri výbuchu bomby, ktorú im do auta nastražil drogový díler a ktorá vlastne mala zabiť jeho, psychicky zrútil a od svojho náročného zamestnania si potreboval oddýchnuť, na neurčito... Jeho nástupcom sa stal mladý dynamický komisár Jan Richter (Christian Oliver), ktorý sa k diaľničnej polícii nechal preveliť z oddelenia krádeží. Na konci ôsmej série sa Jan z deja vyparil, vysvetlenie jeho zmiznutia i tentoraz absentovalo... Na začiatku deviatej série však Semir vyhľadal Toma a požiadal ho o pomoc pri vyšetrovaní aktuálneho prípadu – bol totiž jediný, kto poznal tvár bombového atentátnika, ktorého považovali za mŕtveho a ktorého dovtedy nik nedokázal spoľahlivo identifikovať. A hoci Tom pôvodne plánoval po uzavretí tohto prípadu svoju prácu definitívne zavesiť na klinec, rozhodol sa napokon pre pravý opak – vrátil sa k diaľničnej polícii a znovu sa stal Semirovým partnerom. Toto rozhodnutie sa však v konečnom dôsledku pre oboch ukázalo ako tragické, ba priam osudové - na konci desiatej série totiž Toma zastrelili...

Od jedenástej série sa prázdne miesto po Semirovom boku snažil zaplniť skúsený komisár Chris Ritter (Gedeon Burkhard), pracujúci dlhé roky v utajení, ktorý však len po dvoch sériách tragicky zahynul pri pokuse o záchranu bývalej priateľky. Od trinástej série sa tak novým Semirovým partnerom stal mladý komisár Ben Jäger (Tom Beck)!

16.Séria - 15 častí
Download:

kód:
Len registrovaní užívatelia môžu pozerať odkazy!
Registrujte sa alebo sa prihláste na fórum.


Password:

No!!!

Zobrazit informace o autoroviOdeslat soukromou zprávu
CitovatNávrat nahoru
Zobrazit příspěvky z předchozích:
Přidat nové témaZaslat odpověď
Jdi na stránku Předchozí  1, 2, 3, 4  Další 
Přejdi na:
Nemůžete odesílat nové téma do tohoto fóra.
Nemůžete odpovídat na témata v tomto fóru.
Nemůžete upravovat své příspěvky v tomto fóru.
Nemůžete mazat své příspěvky v tomto fóru.
Nemůžete hlasovat v tomto fóru.

Powered by phpBB © 2007 phpBB Group
Edited by lazyboy & hehm8363
Copyleft W-Source 2007-2011

:: [ Vygenerované za: 0.2 s ] :: [ 17 Queries ] ::